<?xml version="1.0" standalone="no"?>
<!DOCTYPE svg PUBLIC "-//W3C//DTD SVG 1.1//EN" "http://www.w3.org/Graphics/SVG/1.1/DTD/svg11.dtd" >
<svg xmlns="http://www.w3.org/2000/svg" xmlns:xlink="http://www.w3.org/1999/xlink" version="1.1">
<metadata>
Created by FontForge 20170731 at Thu Jan 27 16:36:05 2022
 By Aleksey,,,
Copyright (c) 2014, Cooper Hewitt Smithsonian Design Museum (cooperhewitt.org)
</metadata>
<defs>
<font id="CooperHewitt-Light" horiz-adv-x="614" >
  <font-face 
    font-family="Cooper Hewitt"
    font-weight="703"
    font-stretch="normal"
    units-per-em="2048"
    panose-1="0 0 0 0 0 0 0 0 0 0"
    ascent="1536"
    descent="-512"
    x-height="1085"
    cap-height="1597"
    bbox="-430 -430 2818 1966"
    underline-thickness="40"
    underline-position="-224"
    unicode-range="U+0020-F222"
  />
<missing-glyph horiz-adv-x="1986" 
d="M195 0v1597h1597v-1597h-1597zM993 707l-571 -572h1143zM422 1462l571 -571l572 571h-1143zM901 799l-563 563v-1126zM1085 799l564 -563v1126z" />
    <glyph glyph-name=".notdef" horiz-adv-x="1986" 
d="M195 0v1597h1597v-1597h-1597zM993 707l-571 -572h1143zM422 1462l571 -571l572 571h-1143zM901 799l-563 563v-1126zM1085 799l564 -563v1126z" />
    <glyph glyph-name=".null" horiz-adv-x="0" 
 />
    <glyph glyph-name="nonmarkingreturn" horiz-adv-x="682" 
 />
    <glyph glyph-name="space" unicode=" " horiz-adv-x="409" 
 />
    <glyph glyph-name="exclam" unicode="!" horiz-adv-x="409" 
d="M158 1597h94l-23 -1239h-49zM266 123v-123h-123v123h123z" />
    <glyph glyph-name="quotedbl" unicode="&#x22;" 
d="M158 1597h94l-23 -512h-49zM362 1597h95l-23 -512h-49z" />
    <glyph glyph-name="numbersign" unicode="#" horiz-adv-x="1228" 
d="M205 1004v81h219l123 512h82l-123 -512h354l123 512h82l-123 -512h211v-81h-231l-99 -410h201v-82h-219l-123 -512h-82l123 512h-354l-123 -512h-82l123 512h-211v82h229l98 410h-198zM485 1004l-98 -410h354l99 410h-355z" />
    <glyph glyph-name="dollar" unicode="$" horiz-adv-x="1228" 
d="M866 1720l-63 -260q135 -42 201.5 -146t66.5 -259v-35h-82q0 290 -205 362l-127 -532q222 -28 325 -114t103 -240v-15q0 -169 -121.5 -269.5t-328.5 -100.5q-78 0 -150 16l-59 -250h-82l66 273q-128 52 -197.5 156t-69.5 235v14h82q0 -114 53.5 -198.5t149.5 -127.5
l133 557q-401 55 -401 336v13q0 157 126.5 254.5t327.5 97.5q43 0 113 -8l57 241h82zM639 188q166 0 263 77t97 212v10q0 132 -86.5 197t-271.5 92l-137 -573q58 -15 129 -15h6zM246 1133q0 -112 77 -179t255 -94l131 543q-44 6 -91 6h-6q-157 0 -261.5 -72t-104.5 -194v-10
z" />
    <glyph glyph-name="percent" unicode="%" horiz-adv-x="1843" 
d="M633 0h-86l618 1491q-117 -37 -264 -37q-107 0 -211 23q51 -79 51 -197v-20q0 -162 -93 -250t-234 -88t-234.5 88t-93.5 250v20q0 162 93.5 250t234.5 88q66 0 125 -21q189 -65 362 -65q91 0 206 22t157 43v-75zM1102 338q0 162 93.5 250t234.5 88t234 -88t93 -250v-21
q0 -162 -93 -249.5t-234 -87.5t-234.5 87.5t-93.5 249.5v21zM1180 309q0 -119 69.5 -185.5t173.5 -66.5h13q104 0 173.5 66.5t69.5 185.5v37q0 119 -69.5 185.5t-173.5 66.5h-13q-104 0 -173.5 -66.5t-69.5 -185.5v-37zM664 1288q0 119 -70 185.5t-174 66.5h-12
q-104 0 -174 -66.5t-70 -185.5v-37q0 -119 70 -185.5t174 -66.5h12q104 0 174 66.5t70 185.5v37z" />
    <glyph glyph-name="ampersand" unicode="&#x26;" horiz-adv-x="1331" 
d="M553 -20q-209 0 -330 112.5t-121 317.5v20q0 73 21.5 137t63 117.5t85.5 93.5t105 84q-65 69 -99.5 109.5t-70 94t-50 104.5t-14.5 110v20q0 141 96.5 229.5t262.5 88.5t262 -88.5t96 -229.5v-20q0 -38 -10.5 -74t-24 -64t-43 -61.5t-49.5 -53.5t-63 -52.5t-64.5 -47.5
t-70.5 -49q-23 -16 -35 -24l501 -528q95 185 95 473v10h82q0 -339 -117 -545l250 -264h-115l-182 193q-162 -213 -461 -213zM547 61h12q258 0 397 191l-526 555q-117 -86 -181.5 -174t-64.5 -203v-20q0 -160 91 -254.5t272 -94.5zM229 1300v-20q0 -42 12 -83t28 -72.5
t48.5 -72.5t57.5 -67.5t71 -73.5q10 7 48 32.5t50 33.5t44.5 31.5t44.5 34t37.5 33t36 37t27 37t23 41t12 42t5.5 47.5v20q0 99 -69 167.5t-195 68.5h-16q-126 0 -195.5 -68.5t-69.5 -167.5z" />
    <glyph glyph-name="quotesingle" unicode="'" horiz-adv-x="409" 
d="M158 1597h94l-23 -512h-49z" />
    <glyph glyph-name="parenleft" unicode="(" 
d="M113 717v41q0 138 18.5 260.5t45 211t74.5 183.5t87 156.5t102 150.5h92q-83 -114 -136 -202.5t-103 -206.5t-74 -254t-24 -299v-41q0 -163 24 -299.5t74 -254t103 -206.5t136 -203h-92q-63 89 -102 150.5t-87 156.5t-74.5 184t-45 211.5t-18.5 260.5z" />
    <glyph glyph-name="parenright" unicode=")" 
d="M502 758v-41q0 -138 -18.5 -260.5t-45.5 -211.5t-75 -184t-87 -156.5t-102 -150.5h-92q83 114 136 203t103.5 206.5t74.5 254t24 299.5v41q0 163 -24 299t-74.5 254t-103.5 206.5t-136 202.5h92q63 -89 102 -150t87 -156.5t75 -184t45.5 -211t18.5 -260.5z" />
    <glyph glyph-name="asterisk" unicode="*" horiz-adv-x="778" 
d="M348 1638h82l-10 -307h-62zM25 1346l26 77l289 -104l-18 -57zM205 950l-66 47l189 242l49 -35zM727 1423l27 -77l-297 -84l-19 57zM639 997l-66 -47l-172 254l50 35z" />
    <glyph glyph-name="plus" unicode="+" horiz-adv-x="1228" 
d="M573 1311h82v-471h471v-82h-471v-471h-82v471h-471v82h471v471z" />
    <glyph glyph-name="comma" unicode="," horiz-adv-x="409" 
d="M266 123v-98q0 -250 -184 -250v61q61 0 90.5 36t32.5 128h-62v123h123z" />
    <glyph glyph-name="hyphen" unicode="-" horiz-adv-x="655" 
d="M82 678v78h491v-78h-491z" />
    <glyph glyph-name="period" unicode="." horiz-adv-x="409" 
d="M266 123v-123h-123v123h123z" />
    <glyph glyph-name="slash" unicode="/" 
d="M584 1720l-471 -1966h-82l471 1966h82z" />
    <glyph glyph-name="zero" unicode="0" horiz-adv-x="1228" 
d="M1090 461q0 -107 -26 -192t-81 -151t-148.5 -102t-220.5 -36t-220.5 36t-148 102t-80.5 151t-26 192v676q0 107 26 192t80.5 151t148 102t220.5 36t220.5 -36t148.5 -102t81 -151t26 -192v-676zM1004 1116q0 100 -19.5 175t-62.5 132.5t-118.5 87t-182.5 29.5h-13
q-107 0 -182.5 -29.5t-118.5 -87t-62.5 -132.5t-19.5 -175v-635q0 -100 19.5 -175t62.5 -132.5t118.5 -87t182.5 -29.5h13q107 0 182.5 29.5t118.5 87t62.5 132.5t19.5 175v635z" />
    <glyph glyph-name="one" unicode="1" horiz-adv-x="1228" 
d="M1116 0h-962v82h440v1399l-418 -283l-43 70l502 340h41v-1526h440v-82z" />
    <glyph glyph-name="two" unicode="2" horiz-adv-x="1228" 
d="M420 82h686v-82h-983v51l717 754q102 107 141 186.5t39 175.5v21q0 161 -109 256.5t-290 95.5h-13q-207 0 -305 -113t-98 -362h-82v51q0 243 120.5 372.5t370.5 129.5q228 0 360 -111t132 -309v-20q0 -121 -38.5 -208t-149.5 -202l-656 -688z" />
    <glyph glyph-name="three" unicode="3" horiz-adv-x="1228" 
d="M195 512q0 -228 106 -341.5t303 -113.5h21q81 0 152.5 21t128.5 62t90.5 108t33.5 151v31q0 113 -52 192.5t-136.5 116.5t-192.5 37h-239v78h229q169 0 275 80.5t106 239.5v14q0 161 -107.5 256.5t-287.5 95.5h-21q-206 0 -302.5 -112.5t-96.5 -362.5h-82v51
q0 243 120.5 372.5t370.5 129.5q228 0 360 -111t132 -309v-29q0 -142 -76 -230.5t-211 -123.5q139 -38 218 -134.5t79 -246.5v-31q0 -132 -69.5 -229.5t-182 -145.5t-250.5 -48q-252 0 -376.5 135.5t-124.5 376.5v20h82z" />
    <glyph glyph-name="four" unicode="4" horiz-adv-x="1228" 
d="M860 0h-82v451h-706v51l706 1095h82v-1065h297v-81h-297v-451zM780 1450l-592 -920l201 2h389v676z" />
    <glyph glyph-name="five" unicode="5" horiz-adv-x="1228" 
d="M113 512h82q0 -228 106 -341.5t303 -113.5h21q81 0 152.5 24.5t129 73.5t90.5 130t33 186v41q0 105 -33 186t-90.5 130t-129 73.5t-152.5 24.5h-21q-135 0 -248.5 -64.5t-162.5 -185.5l-68 18l39 903h932v-81h-854l-29 -687q65 84 168.5 129.5t232.5 45.5q103 0 193 -32
t159.5 -93t109.5 -158t40 -219v-21q0 -122 -40 -219t-109.5 -157.5t-159.5 -92.5t-193 -32q-252 0 -376.5 135.5t-124.5 376.5v20z" />
    <glyph glyph-name="six" unicode="6" horiz-adv-x="1228" 
d="M1055 1618v-82q-109 0 -219 -29t-224 -100.5t-194 -177.5q-134 -179 -187 -420q70 92 172.5 143.5t231.5 51.5q106 0 194.5 -30.5t155.5 -91t104 -157.5t37 -223v-21q0 -248 -137 -374.5t-364 -126.5q-105 0 -195.5 36t-159 103.5t-108 174t-39.5 238.5v21q0 429 225 729
q84 113 208.5 191t249.5 111.5t249 33.5zM629 922q-142 0 -252.5 -71t-167.5 -189q-4 -37 -4 -109v-21q0 -215 118 -343t295 -128h13q192 0 300.5 108.5t108.5 305.5v33q0 196 -107 305t-292 109h-12z" />
    <glyph glyph-name="seven" unicode="7" horiz-adv-x="1228" 
d="M133 1024v573h983v-51l-629 -1546h-88l617 1518l-240 -2h-561v-492h-82z" />
    <glyph glyph-name="eight" unicode="8" horiz-adv-x="1228" 
d="M614 -20q-139 0 -251 46.5t-181 143t-69 227.5v31q0 151 79.5 250t217.5 137q-134 35 -210.5 126.5t-76.5 234.5v28q0 197 131.5 305.5t359.5 108.5q229 0 360.5 -108.5t131.5 -305.5v-28q0 -143 -77.5 -234.5t-211.5 -126.5q138 -38 218.5 -137t80.5 -250v-31
q0 -131 -69.5 -227.5t-181.5 -143t-251 -46.5zM580 776q-166 0 -273.5 -92t-107.5 -260v-31q0 -84 33.5 -150t90.5 -106t128.5 -60t152.5 -20h21q81 0 152.5 20t128.5 60t90.5 106t33.5 150v31q0 168 -107.5 260t-273.5 92h-69zM625 1540h-21q-181 0 -288 -93t-107 -253v-14
q0 -108 52 -183t136 -109t193 -34h49q109 0 193 34t136 109t52 183v14q0 160 -107 253t-288 93z" />
    <glyph glyph-name="nine" unicode="9" horiz-adv-x="1228" 
d="M174 -20v81q171 0 345 76t292 232q135 180 184 417q-68 -91 -170.5 -141.5t-230.5 -50.5q-106 0 -194.5 30.5t-155.5 91t-104.5 157.5t-37.5 223v20q0 248 137.5 375t364.5 127q104 0 195 -36t159.5 -104t108 -174.5t39.5 -238.5v-21q0 -429 -225 -729
q-124 -166 -318.5 -250.5t-388.5 -84.5zM600 676q139 0 250 70.5t168 187.5q6 59 6 110v21q0 215 -118.5 343t-295.5 128h-12q-192 0 -301 -108.5t-109 -305.5v-32q0 -196 107.5 -305t292.5 -109h12z" />
    <glyph glyph-name="colon" unicode=":" horiz-adv-x="409" 
d="M266 123v-123h-123v123h123zM266 860v-123h-123v123h123z" />
    <glyph glyph-name="semicolon" unicode=";" horiz-adv-x="409" 
d="M266 123v-98q0 -250 -184 -250v61q61 0 90.5 36t32.5 128h-62v123h123zM266 860v-123h-123v123h123z" />
    <glyph glyph-name="less" unicode="&#x3c;" horiz-adv-x="1228" 
d="M102 840l1024 503v-86l-942 -458l942 -459v-86l-1024 504v82z" />
    <glyph glyph-name="equal" unicode="=" horiz-adv-x="1228" 
d="M102 963v81h1024v-81h-1024zM102 553v82h1024v-82h-1024z" />
    <glyph glyph-name="greater" unicode="&#x3e;" horiz-adv-x="1228" 
d="M1126 840v-82l-1024 -504v86l940 459l-940 458v86z" />
    <glyph glyph-name="question" unicode="?" horiz-adv-x="901" 
d="M457 1540q-74 0 -129.5 -24.5t-91.5 -67.5t-57.5 -109.5t-30.5 -142t-9 -172.5h-82v20q0 100 10 180t37 155.5t71 126.5t115.5 81.5t166.5 30.5q192 0 285.5 -110.5t93.5 -319.5q0 -83 -19.5 -152t-50.5 -118.5t-69 -94.5t-76 -91t-70 -96.5t-53 -121.5t-23 -156h-49
q-2 85 14.5 160t45 130.5t63.5 106t70.5 97.5t64.5 94.5t47.5 107t18.5 124.5q0 181 -65 271.5t-228 90.5zM512 123v-123h-123v123h123z" />
    <glyph glyph-name="at" unicode="@" horiz-adv-x="1945" 
d="M1018 -352h12q194 0 359 49t315 160l45 -62q-288 -225 -725 -225q-210 0 -386 68t-301.5 193t-195 310t-69.5 412v82q0 227 68 412t191.5 310t298 193t384.5 68q143 0 270.5 -33t235.5 -100.5t187 -165t123 -233.5t44 -298v-61q0 -104 -13.5 -188.5t-38.5 -146.5
t-62.5 -109t-81.5 -77.5t-101 -49t-116 -26t-130 -7.5h-51l-20 156q-46 -77 -128.5 -127t-199.5 -50q-107 0 -188.5 40.5t-128.5 110.5t-70 153t-23 178v41q0 95 23 178t70 152.5t128.5 110t188.5 40.5q118 0 200 -50t128 -128l20 157h61l-10 -307v-579q61 1 107.5 6.5
t96 20t86 38.5t69.5 64t53.5 94.5t32.5 131t12 173.5v61q0 152 -41.5 278t-113 212.5t-169.5 146.5t-209.5 87.5t-234.5 27.5h-12q-189 0 -347 -63t-270 -178t-174.5 -285.5t-62.5 -378.5v-82q0 -215 64 -387t178.5 -285t273 -173t348.5 -60zM1249 840q-47 76 -125 132
t-182 56q-166 0 -250 -111.5t-84 -291.5v-41q0 -117 34.5 -206t111 -143.5t188.5 -54.5q104 0 181.5 56t125.5 133v471z" />
    <glyph glyph-name="A" unicode="A" horiz-adv-x="1228" 
d="M553 1618h123l483 -1618h-90l-129 432h-653l-127 -432h-90zM614 1536l-305 -1026h609z" />
    <glyph glyph-name="B" unicode="B" horiz-adv-x="1167" 
d="M164 1597h362q214 0 346 -99t132 -288v-41q0 -136 -71 -222.5t-196 -121.5q143 -34 225 -127.5t82 -246.5v-41q0 -197 -132.5 -303.5t-344.5 -106.5h-403v1597zM578 782h-332v-704h332q81 0 149 20t120 60t81.5 105.5t29.5 150.5v32q0 85 -29.5 150.5t-81.5 105.5
t-120 60t-149 20zM537 1520h-291v-660h291q81 0 148.5 18t120.5 55t82.5 98.5t29.5 142.5v32q0 81 -29.5 142.5t-82.5 98.5t-120.5 55t-148.5 18z" />
    <glyph glyph-name="C" unicode="C" horiz-adv-x="1243" 
d="M215 758q0 -370 106.5 -535.5t327.5 -165.5h13q198 0 290 114t92 341h86v-20q0 -244 -119.5 -378t-359.5 -134q-177 0 -291 79t-172.5 251.5t-58.5 447.5v82q0 275 58.5 447.5t172.5 251.5t291 79q242 0 360.5 -138.5t118.5 -404.5v-51h-86q0 274 -91 395t-291 121h-13
q-219 0 -326.5 -165.5t-107.5 -534.5v-82z" />
    <glyph glyph-name="D" unicode="D" horiz-adv-x="1290" 
d="M1161 758q0 -758 -598 -758h-399v1597h399q598 0 598 -757v-82zM246 78h307q98 0 176.5 22.5t144 72.5t109.5 128.5t68 193.5t24 263v82q0 148 -24 263t-68 193.5t-109.5 128.5t-144 72.5t-176.5 22.5h-307v-1442z" />
    <glyph glyph-name="E" unicode="E" horiz-adv-x="1105" 
d="M164 1597h860v-77h-778v-666h676v-78h-676v-698h778v-78h-860v1597z" />
    <glyph glyph-name="F" unicode="F" horiz-adv-x="1024" 
d="M164 1597h819v-77h-737v-666h635v-78h-635v-776h-82v1597z" />
    <glyph glyph-name="G" unicode="G" horiz-adv-x="1306" 
d="M692 -20q-283 0 -423 185.5t-140 592.5v82q0 405 137.5 591.5t405.5 186.5q242 0 361.5 -139t119.5 -404v-51h-86q0 274 -92 395t-293 121h-12q-223 0 -339 -167.5t-116 -532.5v-82q0 -370 117 -535.5t358 -165.5h12q128 0 223.5 42.5t145.5 103.5v479h-297v78h379v-598
q-66 -77 -180 -129.5t-281 -52.5z" />
    <glyph glyph-name="H" unicode="H" horiz-adv-x="1290" 
d="M1044 1597h82v-1597h-82v776h-798v-776h-82v1597h82v-743h798v743z" />
    <glyph glyph-name="I" unicode="I" horiz-adv-x="430" 
d="M256 1597v-1597h-82v1597h82z" />
    <glyph glyph-name="J" unicode="J" horiz-adv-x="983" 
d="M748 1597h81v-1105q0 -251 -89.5 -381.5t-295.5 -130.5q-207 0 -294 128.5t-87 383.5v20h78q0 -239 71 -347t232 -108t232.5 108t71.5 347v1085z" />
    <glyph glyph-name="K" unicode="K" horiz-adv-x="1105" 
d="M246 1597v-968l678 968h100l-487 -684l487 -913h-96l-443 840l-239 -338v-502h-82v1597h82z" />
    <glyph glyph-name="L" unicode="L" horiz-adv-x="983" 
d="M952 0h-788v1597h82v-1519h706v-78z" />
    <glyph glyph-name="M" unicode="M" horiz-adv-x="1597" 
d="M1358 1454l-529 -1454h-61l-528 1454l6 -369v-1085h-82v1597h106l529 -1458l528 1458h107v-1597h-82v1085z" />
    <glyph glyph-name="N" unicode="N" horiz-adv-x="1331" 
d="M1167 1597v-1597h-92l-839 1475l6 -390v-1085h-78v1597h92l840 -1474l-6 389v1085h77z" />
    <glyph glyph-name="O" unicode="O" horiz-adv-x="1310" 
d="M655 -20q-266 0 -396 185t-130 593v82q0 408 130 593t396 185t396.5 -185.5t130.5 -592.5v-82q0 -407 -130.5 -592.5t-396.5 -185.5zM649 57h13q222 0 328 165.5t106 535.5v82q0 370 -106 535t-328 165h-13q-222 0 -328 -165t-106 -535v-82q0 -370 106 -535.5t328 -165.5
z" />
    <glyph glyph-name="P" unicode="P" horiz-adv-x="1146" 
d="M246 676v-676h-82v1597h414q70 0 132.5 -12t125 -43t107.5 -79.5t73 -126.5t28 -179v-41q0 -101 -28 -179t-73 -126.5t-107.5 -79.5t-125 -43t-132.5 -12h-332zM246 754h332q36 0 70.5 4t73 14.5t71.5 28t64 46t53 65.5t35 90.5t13 117.5v33q0 89 -25 156.5t-63 106.5
t-91 63.5t-101 32.5t-100 8h-332v-766z" />
    <glyph glyph-name="Q" unicode="Q" horiz-adv-x="1310" 
d="M655 -20q-266 0 -396 185t-130 593v82q0 408 130 593t396 185t396.5 -185.5t130.5 -592.5v-82q0 -320 -80.5 -502t-243.5 -244l84 -217h-92l-72 197q-58 -12 -123 -12zM696 436l133 -350q135 55 201 217.5t66 454.5v82q0 370 -106 535t-328 165h-13q-222 0 -328 -165
t-106 -535v-82q0 -370 106 -535.5t328 -165.5h13q48 0 88 6l-136 373h82z" />
    <glyph glyph-name="R" unicode="R" horiz-adv-x="1167" 
d="M246 676v-676h-82v1597h414q70 0 132.5 -12t125 -43t107.5 -79.5t73 -126.5t28 -179v-41q0 -329 -284 -416l284 -700h-92l-270 684q-47 -8 -104 -8h-332zM246 754h332q36 0 70.5 4t73 14.5t71.5 28t64 46t53 65.5t35 90.5t13 117.5v33q0 89 -25 156.5t-63 106.5t-91 63.5
t-101 32.5t-100 8h-332v-766z" />
    <glyph glyph-name="S" unicode="S" horiz-adv-x="1208" 
d="M588 788q-126 17 -218.5 56t-145 94t-77 117t-24.5 133v20q0 189 133.5 299.5t347.5 110.5q481 0 481 -502v-51h-81q0 250 -94.5 362.5t-299.5 112.5h-12q-168 0 -278.5 -84t-110.5 -227v-21q0 -147 95.5 -231t322.5 -115q252 -34 365.5 -141t113.5 -283v-20
q0 -203 -137.5 -320.5t-364.5 -117.5q-241 0 -371.5 137.5t-130.5 374.5v20h82q0 -223 113.5 -339t300.5 -116h12q184 0 297 93t113 258v20q0 160 -103.5 244.5t-328.5 115.5z" />
    <glyph glyph-name="T" unicode="T" horiz-adv-x="1024" 
d="M553 1520v-1520h-82v1520h-420v77h922v-77h-420z" />
    <glyph glyph-name="U" unicode="U" horiz-adv-x="1290" 
d="M645 -20q-120 0 -207 24.5t-153 82t-98.5 158.5t-32.5 247v1105h82v-1095q0 -129 25.5 -216.5t80 -137.5t127 -70.5t176.5 -20.5t177 20.5t127 70.5t80 137.5t26 216.5v1095h82v-1105q0 -146 -33 -247t-99 -158.5t-153 -82t-207 -24.5z" />
    <glyph glyph-name="V" unicode="V" horiz-adv-x="1228" 
d="M676 -20h-123l-483 1617h90l454 -1536l455 1536h90z" />
    <glyph glyph-name="W" unicode="W" horiz-adv-x="1802" 
d="M1270 -20l-369 1536l-369 -1536h-122l-310 1617h88l283 -1531l369 1531h123l368 -1531l283 1531h88l-309 -1617h-123z" />
    <glyph glyph-name="X" unicode="X" horiz-adv-x="1228" 
d="M72 0l495 805l-495 792h98l444 -723l445 723h98l-495 -792l495 -805h-98l-445 727l-444 -727h-98z" />
    <glyph glyph-name="Y" unicode="Y" horiz-adv-x="1146" 
d="M614 481v-481h-82v481l-481 1116h88l434 -1013l435 1013h88z" />
    <glyph glyph-name="Z" unicode="Z" horiz-adv-x="1126" 
d="M82 57l840 1467l-246 -4h-574v77h922v-57l-840 -1466l246 4h614v-78h-962v57z" />
    <glyph glyph-name="bracketleft" unicode="[" 
d="M143 1720h379v-82h-297v-1802h297v-82h-379v1966z" />
    <glyph glyph-name="backslash" unicode="\" 
d="M502 -246l-471 1966h82l471 -1966h-82z" />
    <glyph glyph-name="bracketright" unicode="]" 
d="M471 -246h-379v82h297v1802h-297v82h379v-1966z" />
    <glyph glyph-name="asciicircum" unicode="^" horiz-adv-x="1228" 
d="M655 1597l504 -1024h-86l-459 940l-458 -940h-86l503 1024h82z" />
    <glyph glyph-name="underscore" unicode="_" horiz-adv-x="655" 
d="M102 -242v78h451v-78h-451z" />
    <glyph glyph-name="grave" unicode="`" horiz-adv-x="1024" 
d="M285 1597h86l184 -327h-86z" />
    <glyph glyph-name="a" unicode="a" horiz-adv-x="1024" 
d="M829 0l-20 164q-137 -184 -399 -184q-139 0 -223.5 78t-84.5 208v21q0 68 21 121.5t53 87t80 58t92 36.5t98 20l353 56v41q0 165 -64 243t-223 78q-85 0 -143.5 -23t-89 -67t-42.5 -94t-12 -117h-82v18q0 52 8.5 98t33.5 96t64.5 85.5t107 58.5t155.5 23q103 0 176.5 -29
t114.5 -84.5t59.5 -125t18.5 -160.5v-400l10 -307h-62zM420 57q265 0 379 205v328l-359 -60q-256 -45 -256 -243v-21q0 -89 60 -149t176 -60z" />
    <glyph glyph-name="b" unicode="b" horiz-adv-x="1075" 
d="M225 1638v-688q46 70 125 113t193 43q87 0 157.5 -28t119 -77.5t81 -118.5t47.5 -148.5t15 -170.5v-41q0 -114 -24.5 -210.5t-73.5 -171.5t-131.5 -117.5t-190.5 -42.5q-226 0 -330 174l-18 -154h-62l10 307v1331h82zM225 246q118 -189 307 -189q169 0 257 123.5
t88 341.5v41q0 218 -88 341.5t-257 123.5q-190 0 -307 -188v-594z" />
    <glyph glyph-name="c" unicode="c" horiz-adv-x="1064" 
d="M199 522q0 -215 88.5 -340t265.5 -125q86 0 149.5 25.5t99 71t52 99t16.5 116.5h82v-29q0 -49 -13 -97.5t-43 -96.5t-74.5 -84.5t-114 -59t-154.5 -22.5q-112 0 -198.5 42.5t-138 117.5t-77.5 171.5t-26 210.5v41q0 91 16 170.5t50.5 148.5t85 118.5t124.5 77.5t164 28
q85 0 154.5 -24t114 -61.5t74.5 -87.5t43 -99.5t13 -98.5v-39h-82q0 71 -17.5 129.5t-54.5 105t-99.5 72t-145.5 25.5q-177 0 -265.5 -125t-88.5 -340v-41z" />
    <glyph glyph-name="d" unicode="d" horiz-adv-x="1075" 
d="M532 1106q212 0 318 -156v688h82v-1331l10 -307h-61l-21 154q-44 -77 -126 -125.5t-202 -48.5q-108 0 -190 42.5t-131 118t-73.5 171t-24.5 210.5v41q0 115 24.5 211t73.5 171.5t131 118t190 42.5zM850 246v594q-117 188 -307 188q-169 0 -256.5 -123.5t-87.5 -341.5v-41
q0 -218 87.5 -341.5t256.5 -123.5q189 0 307 189z" />
    <glyph glyph-name="e" unicode="e" horiz-adv-x="1105" 
d="M993 504h-794q3 -209 92.5 -328t271.5 -119q90 0 160 26.5t109.5 69.5t59 92.5t19.5 102.5h82v-8q0 -61 -25.5 -122.5t-75 -115.5t-135.5 -88t-194 -34q-115 0 -203.5 42.5t-141 117.5t-79 171.5t-26.5 210.5v41q0 91 16 170.5t50.5 148.5t85 118.5t124.5 77.5t164 28
t164 -28t124.5 -77.5t85 -118.5t50.5 -148.5t16 -170.5v-59zM553 1028q-174 0 -262.5 -119t-91.5 -327h708q-5 208 -93 327t-261 119z" />
    <glyph glyph-name="f" unicode="f" horiz-adv-x="757" 
d="M328 1352v-267h327v-77h-327v-1008h-82v1008h-174v77h174v277q0 153 77.5 225t208.5 72q95 0 144 -21v-75q-41 18 -123 18q-119 0 -172 -48.5t-53 -180.5z" />
    <glyph glyph-name="g" unicode="g" horiz-adv-x="1075" 
d="M850 -10v225q-104 -154 -318 -154q-108 0 -190.5 40.5t-131 111.5t-73 159t-24.5 191v41q0 103 24.5 191t73 159t131 111.5t190.5 40.5q120 0 202 -48.5t126 -125.5l21 153h61l-10 -307v-798q0 -88 -21.5 -159.5t-66.5 -129t-124.5 -89.5t-187.5 -32t-187 32t-124.5 89.5
t-66.5 129t-21 159.5v20h82q0 -182 74.5 -267t242.5 -85q170 0 244 86.5t74 255.5zM850 840q-117 188 -307 188q-169 0 -256.5 -114.5t-87.5 -309.5v-41q0 -195 87.5 -309.5t256.5 -114.5q189 0 307 189v512z" />
    <glyph glyph-name="h" unicode="h" horiz-adv-x="1044" 
d="M225 1638v-696q50 73 140.5 118.5t218.5 45.5q153 0 240 -91.5t87 -246.5v-768h-82v758q0 139 -71.5 204.5t-194.5 65.5q-221 0 -338 -188v-840h-82v1638h82z" />
    <glyph glyph-name="i" unicode="i" horiz-adv-x="409" 
d="M164 0v1085h82v-1085h-82zM266 1505v-123h-123v123h123z" />
    <glyph glyph-name="j" unicode="j" horiz-adv-x="409" 
d="M164 -123v1208h82v-1218q0 -153 -77.5 -225t-209.5 -72q-96 0 -143 20v76q40 -18 123 -18q119 0 172 48.5t53 180.5zM266 1505v-123h-123v123h123z" />
    <glyph glyph-name="k" unicode="k" horiz-adv-x="983" 
d="M143 0v1638h82v-1194l590 641h107l-379 -409l379 -676h-93l-344 614l-260 -282v-332h-82z" />
    <glyph glyph-name="l" unicode="l" horiz-adv-x="409" 
d="M164 0v1638h82v-1638h-82z" />
    <glyph glyph-name="m" unicode="m" horiz-adv-x="1607" 
d="M1475 0h-82v788q0 136 -62 188t-174 52q-62 0 -113 -16.5t-88 -47.5t-60 -59t-46 -65v-840h-82v788q0 136 -62 188t-174 52q-62 0 -113 -16.5t-88 -47.5t-60 -59t-46 -65v-840h-82v778l-10 307h62l18 -153q48 77 132.5 125.5t207.5 48.5q107 0 179 -46t99 -136
q46 79 133 130.5t214 51.5q141 0 219 -78t78 -229v-799z" />
    <glyph glyph-name="n" unicode="n" horiz-adv-x="1044" 
d="M911 0h-82v758q0 139 -71.5 204.5t-194.5 65.5q-221 0 -338 -188v-840h-82v778l-10 307h62l18 -159q50 79 142.5 129.5t228.5 50.5q153 0 240 -91.5t87 -246.5v-768z" />
    <glyph glyph-name="o" unicode="o" horiz-adv-x="1105" 
d="M553 -20q-112 0 -198.5 42.5t-138 117.5t-77.5 171.5t-26 210.5v41q0 91 16 170.5t50.5 148.5t85 118.5t124.5 77.5t164 28t164 -28t124.5 -77.5t85 -118.5t50.5 -148.5t16 -170.5v-41q0 -114 -26 -210.5t-77.5 -171.5t-138 -117.5t-198.5 -42.5zM553 57q177 0 265.5 125
t88.5 340v41q0 215 -88.5 340t-265.5 125t-265.5 -125t-88.5 -340v-41q0 -215 88.5 -340t265.5 -125z" />
    <glyph glyph-name="p" unicode="p" horiz-adv-x="1075" 
d="M543 -20q-218 0 -318 153v-543h-82v1188l-10 307h62l18 -153q104 174 330 174q87 0 157.5 -28t119 -77.5t81 -118.5t47.5 -148.5t15 -170.5v-41q0 -114 -24.5 -210.5t-73.5 -171.5t-131.5 -117.5t-190.5 -42.5zM225 840v-594q118 -189 307 -189q169 0 257 123.5t88 341.5
v41q0 218 -88 341.5t-257 123.5q-190 0 -307 -188z" />
    <glyph glyph-name="q" unicode="q" horiz-adv-x="1075" 
d="M850 -410v543q-104 -153 -318 -153q-108 0 -190 42.5t-131 118t-73.5 171t-24.5 210.5v41q0 115 24.5 211t73.5 171.5t131 118t190 42.5q120 0 202 -48.5t126 -125.5l21 153h61l-10 -307v-1188h-82zM850 840q-117 188 -307 188q-169 0 -256.5 -123.5t-87.5 -341.5v-41
q0 -218 87.5 -341.5t256.5 -123.5q189 0 307 189v594z" />
    <glyph glyph-name="r" unicode="r" horiz-adv-x="645" 
d="M522 1106l31 -2v-76h-21q-62 0 -113 -16.5t-88 -47.5t-60 -59t-46 -65v-840h-82v778l-10 307h62l18 -153q46 77 123.5 125.5t185.5 48.5z" />
    <glyph glyph-name="s" unicode="s" horiz-adv-x="1064" 
d="M532 57q149 0 231.5 61.5t82.5 168.5q0 65 -19 106.5t-64.5 67t-104.5 37.5t-156 20q-105 10 -176.5 34.5t-110 63.5t-54.5 83.5t-16 103.5v10q0 129 101.5 211t285.5 82q105 0 182 -27t121.5 -77t65.5 -113.5t21 -143.5v-8h-82q0 143 -69 217t-239 74q-142 0 -221.5 -57
t-79.5 -162q0 -69 25.5 -111t99.5 -71.5t207 -40.5q201 -15 285 -83.5t84 -211.5v-8q0 -134 -107 -218.5t-293 -84.5q-88 0 -158.5 21t-114.5 55t-73 79t-41 90.5t-12 93.5v9h82q0 -55 15 -100t48.5 -85.5t98 -63t155.5 -22.5z" />
    <glyph glyph-name="t" unicode="t" horiz-adv-x="798" 
d="M328 1085h368v-77h-368v-721q0 -132 53 -181t172 -49q80 0 123 19v-76q-47 -20 -144 -20q-132 0 -209 71.5t-77 224.5v732h-174v77h174v308h82v-308z" />
    <glyph glyph-name="u" unicode="u" horiz-adv-x="1044" 
d="M133 1085h82v-757q0 -140 71.5 -205.5t194.5 -65.5q220 0 338 189v839h82v-778l10 -307h-61l-21 158q-49 -79 -141 -128.5t-227 -49.5q-153 0 -240.5 91t-87.5 246v768z" />
    <glyph glyph-name="v" unicode="v" horiz-adv-x="1024" 
d="M463 0l-402 1085h93l358 -993l358 993h93l-402 -1085h-98z" />
    <glyph glyph-name="w" unicode="w" horiz-adv-x="1433" 
d="M717 985l-281 -985h-114l-250 1085h84l225 -1003l285 1003h102l285 -1003l225 1003h84l-250 -1085h-115z" />
    <glyph glyph-name="x" unicode="x" horiz-adv-x="942" 
d="M51 1085h101l319 -471l320 471h100l-369 -542l369 -543h-105l-315 463l-315 -463h-105l369 543z" />
    <glyph glyph-name="y" unicode="y" horiz-adv-x="946" 
d="M492 133l346 952h86l-392 -1048l-159 -447h-90l168 447l-392 1048h86z" />
    <glyph glyph-name="z" unicode="z" horiz-adv-x="913" 
d="M78 57l637 953l-248 -2h-369v77h717v-57l-637 -952l248 2h410v-78h-758v57z" />
    <glyph glyph-name="braceleft" unicode="{" 
d="M522 1720v-82q-104 0 -154.5 -47.5t-50.5 -177.5v-475q0 -150 -108 -201q108 -55 108 -200v-476q0 -130 50.5 -177.5t154.5 -47.5v-82h-30q-47 0 -88.5 12t-81 38.5t-63 79.5t-23.5 126v502q0 58 -11 95t-36 56.5t-56.5 26t-81.5 6.5v82q100 0 142.5 36.5t42.5 148.5v501
q0 73 23.5 126t63 79.5t81 38.5t88.5 12h30z" />
    <glyph glyph-name="bar" unicode="|" horiz-adv-x="368" 
d="M143 -246v1966h82v-1966h-82z" />
    <glyph glyph-name="braceright" unicode="}" 
d="M92 -246v82q104 0 154.5 47.5t50.5 177.5v476q0 146 109 200q-109 50 -109 201v475q0 130 -50.5 177.5t-154.5 47.5v82h31q47 0 88.5 -12t81 -38.5t63 -79.5t23.5 -126v-501q0 -112 42 -148.5t142 -36.5v-82q-100 0 -142 -36t-42 -148v-502q0 -73 -23.5 -126t-63 -79.5
t-81 -38.5t-88.5 -12h-31z" />
    <glyph glyph-name="asciitilde" unicode="~" horiz-adv-x="1228" 
d="M356 901q74 0 148 -23.5t124.5 -51t119 -51t133.5 -23.5q62 0 117 36.5t92 83.5l57 -57q-114 -141 -275 -141q-74 0 -147.5 23.5t-124 51t-119 51t-133.5 23.5q-62 0 -116.5 -37t-92.5 -84l-57 58q114 141 274 141z" />
    <glyph glyph-name="nbspace" unicode="&#xa0;" horiz-adv-x="409" 
 />
    <glyph glyph-name="exclamdown" unicode="&#xa1;" horiz-adv-x="409" 
d="M252 -410h-94l22 1137h49zM143 963v122h123v-122h-123z" />
    <glyph glyph-name="cent" unicode="&#xa2;" horiz-adv-x="1228" 
d="M866 1720l-61 -256q96 -29 160 -94t92 -150t28 -190v-45h-84q0 334 -215 401l-280 -1171q62 -18 137 -18h6q183 0 267.5 98.5t84.5 273.5h84v-24q0 -92 -25.5 -168t-77 -135.5t-138 -93t-199.5 -33.5q-91 0 -158 20l-61 -258h-82l68 287q-132 67 -200.5 222.5
t-68.5 387.5v51q0 321 128 491.5t374 170.5q45 0 82 -6l57 239h82zM229 774q0 -402 203 -524l277 1151q-36 4 -60 4h-6q-201 0 -307.5 -146t-106.5 -434v-51z" />
    <glyph glyph-name="sterling" unicode="&#xa3;" horiz-adv-x="1228" 
d="M676 1540q-167 0 -250.5 -99t-83.5 -274q0 -133 49 -327h428v-82h-407q6 -24 27.5 -104t30.5 -114.5t25 -106.5t23.5 -119.5t14.5 -111t8 -120.5h565v-82h-983v82h346q-6 85 -24 181t-35.5 162.5t-48 172.5t-44.5 160h-194v82h174q-41 179 -41 338q0 205 112.5 322.5
t307.5 117.5q95 0 170.5 -30t125.5 -82t83 -126t47 -157t14 -179v-20h-82q0 242 -88 379t-270 137z" />
    <glyph glyph-name="yen" unicode="&#xa5;" horiz-adv-x="1228" 
d="M92 901v82h250l-301 614h92l481 -985l482 985h92l-303 -614h252v-82h-291l-162 -328h453v-81h-482v-492h-82v492h-481v81h451l-160 328h-291z" />
    <glyph glyph-name="brokenbar" unicode="&#xa6;" horiz-adv-x="368" 
d="M143 819v901h82v-901h-82zM143 -246v901h82v-901h-82z" />
    <glyph glyph-name="section" unicode="&#xa7;" horiz-adv-x="1024" 
d="M932 795q0 -98 -55 -168.5t-160 -102.5q88 -35 125 -95.5t37 -145.5v-11q0 -129 -101 -210.5t-286 -81.5q-205 0 -297.5 97t-92.5 263v8h82q0 -143 69 -217t239 -74q142 0 221.5 57t79.5 162q0 69 -25.5 111.5t-99.5 72t-207 40.5q-201 15 -285 83.5t-84 211.5v8
q0 96 55 166t158 102q-88 36 -124 97t-36 147v10q0 129 101.5 211t285.5 82q105 0 182 -27t121.5 -77t65.5 -113.5t21 -143.5v-8h-82q0 143 -69 217t-239 74q-142 0 -221.5 -57t-79.5 -162q0 -69 25.5 -111t99.5 -71.5t207 -40.5q201 -15 285 -83.5t84 -211.5v-8zM846 799
q0 63 -18 104t-60.5 66.5t-98.5 38t-145 20.5h-32q-149 0 -231.5 -61t-82.5 -168q0 -63 18 -104t60 -66.5t98 -38.5t144 -21h34q149 0 231.5 61.5t82.5 168.5z" />
    <glyph glyph-name="dieresis" unicode="&#xa8;" horiz-adv-x="1024" 
d="M420 1505v-123h-123v123h123zM727 1505v-123h-123v123h123z" />
    <glyph glyph-name="copyright" unicode="&#xa9;" horiz-adv-x="1884" 
d="M123 799q0 167 65 318.5t174.5 261t261 174.5t318.5 65t318.5 -65t261 -174.5t174.5 -261t65 -318.5t-65 -318.5t-174.5 -261t-261 -174.5t-318.5 -65t-318.5 65t-261 174.5t-174.5 261t-65 318.5zM201 799q0 -202 99 -372.5t269.5 -270t372.5 -99.5t372.5 99.5
t269.5 270t99 372.5q0 151 -58.5 288.5t-157.5 236.5t-236.5 157.5t-288.5 58.5t-288.5 -58.5t-236.5 -157.5t-157.5 -236.5t-58.5 -288.5zM942 379q68 0 122 16.5t86 41.5t53 59t28.5 65.5t7.5 63.5h82v-21q0 -34 -10.5 -71.5t-38.5 -80.5t-69 -76.5t-109 -56t-152 -22.5
q-89 0 -162 30t-120 78.5t-79 112.5t-45.5 129t-13.5 131v41q0 66 13.5 131t45.5 129t79 112.5t120 78.5t162 30q84 0 152 -23.5t109 -58.5t69 -79.5t38.5 -83t10.5 -72.5v-31h-82q0 50 -15 94.5t-47 84.5t-92.5 64t-142.5 24q-71 0 -128.5 -23.5t-95 -62.5t-63 -91.5
t-36.5 -108t-11 -114.5v-41q0 -75 18.5 -143t56.5 -127t104.5 -94t154.5 -35z" />
    <glyph glyph-name="ordfeminine" unicode="&#xaa;" horiz-adv-x="772" 
d="M627 795l-17 116q-101 -133 -293 -133q-105 0 -168 59t-63 156v17q0 63 22 108.5t62.5 72t81 40t94.5 22.5l254 39v29q0 116 -45.5 171.5t-157.5 55.5q-116 0 -160 -56.5t-44 -156.5h-76v15q0 38 6.5 73t25.5 71.5t49 63t81.5 43.5t117.5 17q152 0 216.5 -78t64.5 -219
v-299l8 -227h-59zM332 848q179 0 268 141v240l-254 -41q-182 -33 -182 -176v-15q0 -64 42 -106.5t126 -42.5zM102 457v71h584v-71h-584z" />
    <glyph glyph-name="guillemotleft" unicode="&#xab;" horiz-adv-x="1024" 
d="M512 1044v-92l-334 -256l334 -256v-92l-410 318v61zM922 1044v-92l-334 -256l334 -256v-92l-410 318v61z" />
    <glyph glyph-name="logicalnot" unicode="&#xac;" horiz-adv-x="1228" 
d="M102 1044v82h1024v-675h-82v593h-942z" />
    <glyph glyph-name="uni00AD" unicode="&#xad;" horiz-adv-x="655" 
d="M82 678v78h491v-78h-491z" />
    <glyph glyph-name="registered" unicode="&#xae;" horiz-adv-x="675" 
d="M41 1362q0 123 87 210t210 87t210 -87t87 -210t-87 -210t-210 -87t-210 87t-87 210zM90 1362q0 -103 72.5 -175.5t175.5 -72.5t175.5 72.5t72.5 175.5t-72.5 175.5t-175.5 72.5t-175.5 -72.5t-72.5 -175.5zM461 1421q0 -71 -64 -94l64 -141h-60l-57 135h-72v-135h-57v352
h135q50 0 80.5 -26.5t30.5 -73.5v-17zM403 1434q0 51 -63 51h-68v-111h68q63 0 63 51v9z" />
    <glyph glyph-name="macron" unicode="&#xaf;" horiz-adv-x="1024" 
d="M297 1393v82h430v-82h-430z" />
    <glyph glyph-name="degree" unicode="&#xb0;" horiz-adv-x="819" 
d="M639 1303v16q0 100 -64 160.5t-159 60.5h-13q-95 0 -159 -60.5t-64 -160.5v-16q0 -100 64 -161t159 -61h13q95 0 159 61t64 161zM717 1315v-8q0 -138 -87 -220.5t-220 -82.5q-134 0 -221 82.5t-87 220.5v8q0 138 87 220.5t221 82.5q133 0 220 -82.5t87 -220.5z" />
    <glyph glyph-name="plusminus" unicode="&#xb1;" horiz-adv-x="1228" 
d="M573 1311h82v-307h471v-82h-471v-308h-82v308h-471v82h471v307zM102 348v82h1024v-82h-1024z" />
    <glyph glyph-name="twosuperior" unicode="&#xb2;" 
d="M557 864v-65h-500v45l344 366q46 47 64 83.5t18 80.5v10q0 73 -47.5 115.5t-126.5 42.5h-6q-88 0 -131 -50t-43 -161h-72v25q0 252 250 252q119 0 184.5 -58t65.5 -155v-13q0 -61 -20 -104t-74 -100l-295 -314h389z" />
    <glyph glyph-name="threesuperior" unicode="&#xb3;" 
d="M125 1055q0 -203 176 -203h10q74 0 126 40t52 114v14q0 74 -46.5 114t-120.5 40h-117v65h112q73 0 119.5 35.5t46.5 105.5v9q0 70 -47.5 111.5t-124.5 41.5h-10q-88 0 -130 -50t-42 -161h-72v25q0 252 250 252q119 0 184.5 -57.5t65.5 -153.5v-15q0 -132 -125 -178
q129 -46 129 -184v-16q0 -96 -71 -157t-183 -61q-128 0 -192 67t-64 189v13h74z" />
    <glyph glyph-name="acute" unicode="&#xb4;" horiz-adv-x="1024" 
d="M653 1597h86l-184 -327h-86z" />
    <glyph glyph-name="paragraph" unicode="&#xb6;" horiz-adv-x="1024" 
d="M799 0v1520h-144v-1520h-82v676h-24q-70 0 -132.5 12t-125 43t-108 79.5t-73.5 126.5t-28 179v41q0 101 28 179t73.5 126.5t108 79.5t125 43t132.5 12h332v-1597h-82zM168 1120q0 -89 25 -156.5t63.5 -106t91.5 -63t101 -32.5t100 -8h24v766h-24q-52 0 -100 -8
t-101 -32.5t-91.5 -63.5t-63.5 -106.5t-25 -156.5v-33z" />
    <glyph glyph-name="periodcentered" unicode="&#xb7;" horiz-adv-x="409" 
d="M266 778v-123h-123v123h123z" />
    <glyph glyph-name="cedilla" unicode="&#xb8;" horiz-adv-x="1232" 
d="M326 -385l26 61q58 -38 144 -38q73 0 107 18.5t34 64.5q0 80 -133 80l-53 -4l-35 33l63 170h74l-49 -131h10q35 0 66.5 -7t60.5 -22.5t46.5 -45.5t17.5 -70q0 -80 -54 -117t-145 -37q-116 0 -180 45z" />
    <glyph glyph-name="onesuperior" unicode="&#xb9;" 
d="M561 799h-489v65h209v637l-189 -127l-37 58l252 170h47v-738h207v-65z" />
    <glyph glyph-name="ordmasculine" unicode="&#xba;" horiz-adv-x="839" 
d="M752 1182q0 -86 -20 -157.5t-59 -127.5t-104 -87.5t-149 -31.5t-149 31.5t-104 87.5t-59 127.5t-20 157.5v32q0 86 20 157.5t59 127.5t104 87.5t149 31.5t149 -31.5t104 -87.5t59 -127.5t20 -157.5v-32zM168 1182q0 -155 63 -243.5t189 -88.5t189 88.5t63 243.5v32
q0 155 -63 243.5t-189 88.5t-189 -88.5t-63 -243.5v-32zM102 457v71h635v-71h-635z" />
    <glyph glyph-name="guillemotright" unicode="&#xbb;" horiz-adv-x="1024" 
d="M512 952v92l410 -317v-61l-410 -318v92l334 256zM102 952v92l410 -317v-61l-410 -318v92l334 256z" />
    <glyph glyph-name="onequarter" unicode="&#xbc;" horiz-adv-x="1638" 
d="M1473 0h-74v211h-342v49l344 539h72v-520h131v-68h-131v-211zM274 0h-90l1180 1597h90zM561 799h-489v65h209v637l-189 -127l-37 58l252 170h47v-738h207v-65zM1401 674l-254 -398l88 3h164v290z" />
    <glyph glyph-name="onehalf" unicode="&#xbd;" horiz-adv-x="1638" 
d="M274 0h-90l1180 1597h90zM1581 66v-66h-500v45l344 367q46 47 64 83t18 80v11q0 73 -47.5 115t-126.5 42h-6q-88 0 -131 -50t-43 -161h-72v25q0 252 250 252q119 0 184.5 -58t65.5 -155v-12q0 -61 -20 -104.5t-74 -100.5l-295 -313h389zM561 799h-489v65h209v637
l-189 -127l-37 58l252 170h47v-738h207v-65z" />
    <glyph glyph-name="threequarters" unicode="&#xbe;" horiz-adv-x="1638" 
d="M1473 0h-74v211h-342v49l344 539h72v-520h131v-68h-131v-211zM274 0h-90l1180 1597h90zM125 1055q0 -203 176 -203h10q74 0 126 40t52 114v14q0 74 -46.5 114t-120.5 40h-117v65h112q73 0 119.5 35.5t46.5 105.5v9q0 70 -47.5 111.5t-124.5 41.5h-10q-88 0 -130 -50
t-42 -161h-72v25q0 252 250 252q119 0 184.5 -57.5t65.5 -153.5v-15q0 -132 -125 -178q129 -46 129 -184v-16q0 -96 -71 -157t-183 -61q-128 0 -192 67t-64 189v13h74zM1401 674l-254 -398l88 3h164v290z" />
    <glyph glyph-name="questiondown" unicode="&#xbf;" horiz-adv-x="901" 
d="M444 -352q92 0 155.5 33t98.5 98t49.5 147.5t14.5 196.5h82v-21q0 -93 -10 -167t-37 -144.5t-71 -117.5t-115.5 -75t-166.5 -28q-180 0 -279 97t-99 272q0 83 19.5 151.5t50.5 117.5t68.5 92.5t75.5 86.5t70 89t53 110t23 141h49q2 -77 -14.5 -145t-45 -119t-63.5 -98.5
t-70 -93t-64 -92t-47.5 -106t-18.5 -124.5q0 -301 292 -301zM389 963v122h123v-122h-123z" />
    <glyph glyph-name="Agrave" unicode="&#xc0;" horiz-adv-x="1228" 
d="M553 1618h123l483 -1618h-90l-129 432h-653l-127 -432h-90zM614 1536l-305 -1026h609zM444 1946h86l127 -226h-86z" />
    <glyph glyph-name="Aacute" unicode="&#xc1;" horiz-adv-x="1228" 
d="M553 1618h123l483 -1618h-90l-129 432h-653l-127 -432h-90zM614 1536l-305 -1026h609zM698 1946h86l-127 -226h-86z" />
    <glyph glyph-name="Acircumflex" unicode="&#xc2;" horiz-adv-x="1228" 
d="M553 1618h123l483 -1618h-90l-129 432h-653l-127 -432h-90zM614 1536l-305 -1026h609zM471 1720h-92l205 226h61l205 -226h-92l-144 158z" />
    <glyph glyph-name="Atilde" unicode="&#xc3;" horiz-adv-x="1228" 
d="M553 1618h123l483 -1618h-90l-129 432h-653l-127 -432h-90zM614 1536l-305 -1026h609zM827 1909h74q0 -85 -39.5 -128.5t-107.5 -43.5q-40 0 -81 19.5t-69.5 43t-62 43t-60.5 19.5q-80 0 -80 -105h-73q0 85 39.5 128.5t107.5 43.5q40 0 81 -19.5t69.5 -43t62 -43
t60.5 -19.5q79 0 79 105z" />
    <glyph glyph-name="Adieresis" unicode="&#xc4;" horiz-adv-x="1228" 
d="M553 1618h123l483 -1618h-90l-129 432h-653l-127 -432h-90zM614 1536l-305 -1026h609zM522 1894v-122h-123v122h123zM829 1894v-122h-122v122h122z" />
    <glyph glyph-name="Aring" unicode="&#xc5;" horiz-adv-x="1228" 
d="M430 1782q0 76 54 130t130 54q77 0 131 -54t54 -130q0 -59 -33 -106.5t-88 -67.5l481 -1608h-90l-129 432h-653l-127 -432h-90l479 1608q-53 21 -86 68t-33 106zM614 1536l-305 -1026h609zM496 1782q0 -50 34.5 -84.5t83.5 -34.5q50 0 84.5 34.5t34.5 84.5t-34.5 84.5
t-84.5 34.5q-49 0 -83.5 -34.5t-34.5 -84.5z" />
    <glyph glyph-name="AE" unicode="&#xc6;" horiz-adv-x="1679" 
d="M653 1597h944v-77h-815l101 -666h612v-78h-602l104 -698h600v-78h-671l-68 453h-553l-168 -453h-88zM702 1520l-368 -990h514z" />
    <glyph glyph-name="Ccedilla" unicode="&#xc7;" horiz-adv-x="1243" 
d="M477 -385l27 61q58 -38 143 -38q73 0 107 18.5t34 64.5q0 80 -133 80l-53 -4l-35 33l56 150q-251 9 -372.5 194.5t-121.5 583.5v82q0 275 58.5 447.5t172.5 251.5t291 79q242 0 360.5 -138.5t118.5 -404.5v-51h-86q0 274 -91 395t-291 121h-13q-219 0 -326.5 -165.5
t-107.5 -534.5v-82q0 -370 106.5 -535.5t327.5 -165.5h13q198 0 290 114t92 341h86v-20q0 -233 -108 -365.5t-326 -144.5l-41 -113h11q35 0 66.5 -7t60.5 -22.5t46 -45.5t17 -70q0 -80 -54 -117t-145 -37q-116 0 -180 45z" />
    <glyph glyph-name="Egrave" unicode="&#xc8;" horiz-adv-x="1105" 
d="M164 1597h860v-77h-778v-666h676v-78h-676v-698h778v-78h-860v1597zM444 1946h86l127 -226h-86z" />
    <glyph glyph-name="Eacute" unicode="&#xc9;" horiz-adv-x="1105" 
d="M164 1597h860v-77h-778v-666h676v-78h-676v-698h778v-78h-860v1597zM698 1946h86l-127 -226h-86z" />
    <glyph glyph-name="Ecircumflex" unicode="&#xca;" horiz-adv-x="1105" 
d="M164 1597h860v-77h-778v-666h676v-78h-676v-698h778v-78h-860v1597zM471 1720h-92l205 226h61l205 -226h-92l-144 158z" />
    <glyph glyph-name="Edieresis" unicode="&#xcb;" horiz-adv-x="1105" 
d="M164 1597h860v-77h-778v-666h676v-78h-676v-698h778v-78h-860v1597zM829 1894v-122h-122v122h122zM522 1894v-122h-123v122h123z" />
    <glyph glyph-name="Igrave" unicode="&#xcc;" horiz-adv-x="430" 
d="M256 1597v-1597h-82v1597h82zM45 1946h86l127 -226h-86z" />
    <glyph glyph-name="Iacute" unicode="&#xcd;" horiz-adv-x="430" 
d="M256 1597v-1597h-82v1597h82zM299 1946h86l-127 -226h-86z" />
    <glyph glyph-name="Icircumflex" unicode="&#xce;" horiz-adv-x="430" 
d="M256 1597v-1597h-82v1597h82zM72 1720h-92l204 226h62l205 -226h-93l-143 158z" />
    <glyph glyph-name="Idieresis" unicode="&#xcf;" horiz-adv-x="430" 
d="M256 1597v-1597h-82v1597h82zM430 1894v-122h-123v122h123zM123 1894v-122h-123v122h123z" />
    <glyph glyph-name="Eth" unicode="&#xd0;" horiz-adv-x="1413" 
d="M41 776v78h246v743h399q598 0 598 -757v-82q0 -758 -598 -758h-399v776h-246zM369 1520v-666h471v-78h-471v-698h307q98 0 176.5 22.5t144 72.5t109.5 128.5t68 193.5t24 263v82q0 148 -24 263t-68 193.5t-109.5 128.5t-144 72.5t-176.5 22.5h-307z" />
    <glyph glyph-name="Ntilde" unicode="&#xd1;" horiz-adv-x="1331" 
d="M1167 1597v-1597h-92l-839 1475l6 -390v-1085h-78v1597h92l840 -1474l-6 389v1085h77zM879 1909h73q0 -85 -39.5 -128.5t-107.5 -43.5q-40 0 -81 19.5t-69.5 43t-62 43t-60.5 19.5q-79 0 -79 -105h-74q0 85 39.5 128.5t107.5 43.5q40 0 81 -19.5t69.5 -43t62 -43
t60.5 -19.5q80 0 80 105z" />
    <glyph glyph-name="Ograve" unicode="&#xd2;" horiz-adv-x="1310" 
d="M655 -20q-266 0 -396 185t-130 593v82q0 408 130 593t396 185t396.5 -185.5t130.5 -592.5v-82q0 -407 -130.5 -592.5t-396.5 -185.5zM649 57h13q222 0 328 165.5t106 535.5v82q0 370 -106 535t-328 165h-13q-222 0 -328 -165t-106 -535v-82q0 -370 106 -535.5t328 -165.5
zM485 1946h86l127 -226h-86z" />
    <glyph glyph-name="Oacute" unicode="&#xd3;" horiz-adv-x="1310" 
d="M655 -20q-266 0 -396 185t-130 593v82q0 408 130 593t396 185t396.5 -185.5t130.5 -592.5v-82q0 -407 -130.5 -592.5t-396.5 -185.5zM649 57h13q222 0 328 165.5t106 535.5v82q0 370 -106 535t-328 165h-13q-222 0 -328 -165t-106 -535v-82q0 -370 106 -535.5t328 -165.5
zM739 1946h86l-127 -226h-86z" />
    <glyph glyph-name="Ocircumflex" unicode="&#xd4;" horiz-adv-x="1310" 
d="M655 -20q-266 0 -396 185t-130 593v82q0 408 130 593t396 185t396.5 -185.5t130.5 -592.5v-82q0 -407 -130.5 -592.5t-396.5 -185.5zM649 57h13q222 0 328 165.5t106 535.5v82q0 370 -106 535t-328 165h-13q-222 0 -328 -165t-106 -535v-82q0 -370 106 -535.5t328 -165.5
zM512 1720h-92l205 226h61l205 -226h-92l-144 158z" />
    <glyph glyph-name="Otilde" unicode="&#xd5;" horiz-adv-x="1310" 
d="M655 -20q-266 0 -396 185t-130 593v82q0 408 130 593t396 185t396.5 -185.5t130.5 -592.5v-82q0 -407 -130.5 -592.5t-396.5 -185.5zM649 57h13q222 0 328 165.5t106 535.5v82q0 370 -106 535t-328 165h-13q-222 0 -328 -165t-106 -535v-82q0 -370 106 -535.5t328 -165.5
zM868 1909h74q0 -85 -39.5 -128.5t-107.5 -43.5q-40 0 -81 19.5t-69.5 43t-62 43t-60.5 19.5q-80 0 -80 -105h-73q0 85 39.5 128.5t107.5 43.5q40 0 81 -19.5t69 -43t61.5 -43t60.5 -19.5q80 0 80 105z" />
    <glyph glyph-name="Odieresis" unicode="&#xd6;" horiz-adv-x="1310" 
d="M655 -20q-266 0 -396 185t-130 593v82q0 408 130 593t396 185t396.5 -185.5t130.5 -592.5v-82q0 -407 -130.5 -592.5t-396.5 -185.5zM649 57h13q222 0 328 165.5t106 535.5v82q0 370 -106 535t-328 165h-13q-222 0 -328 -165t-106 -535v-82q0 -370 106 -535.5t328 -165.5
zM563 1894v-122h-123v122h123zM870 1894v-122h-122v122h122z" />
    <glyph glyph-name="multiply" unicode="&#xd7;" horiz-adv-x="1228" 
d="M137 262l-59 60l477 477l-477 477l59 59l477 -477l478 477l59 -59l-477 -477l477 -477l-59 -60l-478 477z" />
    <glyph glyph-name="Oslash" unicode="&#xd8;" horiz-adv-x="1282" 
d="M129 840q0 408 130 593t396 185q228 0 355 -133l67 112h90l-106 -178q121 -192 121 -579v-82q0 -407 -130.5 -592.5t-396.5 -185.5q-242 0 -366 147l-76 -127h-90l117 195q-111 191 -111 563v82zM1096 840q0 322 -84 495l-678 -1132q105 -146 315 -146h13
q222 0 328 165.5t106 535.5v82zM215 758q0 -309 74 -477l676 1128q-105 131 -303 131h-13q-222 0 -328 -165t-106 -535v-82z" />
    <glyph glyph-name="Ugrave" unicode="&#xd9;" horiz-adv-x="1290" 
d="M645 -20q-120 0 -207 24.5t-153 82t-98.5 158.5t-32.5 247v1105h82v-1095q0 -129 25.5 -216.5t80 -137.5t127 -70.5t176.5 -20.5t177 20.5t127 70.5t80 137.5t26 216.5v1095h82v-1105q0 -146 -33 -247t-99 -158.5t-153 -82t-207 -24.5zM475 1946h86l127 -226h-86z" />
    <glyph glyph-name="Uacute" unicode="&#xda;" horiz-adv-x="1290" 
d="M645 -20q-120 0 -207 24.5t-153 82t-98.5 158.5t-32.5 247v1105h82v-1095q0 -129 25.5 -216.5t80 -137.5t127 -70.5t176.5 -20.5t177 20.5t127 70.5t80 137.5t26 216.5v1095h82v-1105q0 -146 -33 -247t-99 -158.5t-153 -82t-207 -24.5zM729 1946h86l-127 -226h-86z" />
    <glyph glyph-name="Ucircumflex" unicode="&#xdb;" horiz-adv-x="1290" 
d="M645 -20q-120 0 -207 24.5t-153 82t-98.5 158.5t-32.5 247v1105h82v-1095q0 -129 25.5 -216.5t80 -137.5t127 -70.5t176.5 -20.5t177 20.5t127 70.5t80 137.5t26 216.5v1095h82v-1105q0 -146 -33 -247t-99 -158.5t-153 -82t-207 -24.5zM502 1720h-92l204 226h62l205 -226
h-93l-143 158z" />
    <glyph glyph-name="Udieresis" unicode="&#xdc;" horiz-adv-x="1290" 
d="M645 -20q-120 0 -207 24.5t-153 82t-98.5 158.5t-32.5 247v1105h82v-1095q0 -129 25.5 -216.5t80 -137.5t127 -70.5t176.5 -20.5t177 20.5t127 70.5t80 137.5t26 216.5v1095h82v-1105q0 -146 -33 -247t-99 -158.5t-153 -82t-207 -24.5zM860 1894v-122h-123v122h123z
M553 1894v-122h-123v122h123z" />
    <glyph glyph-name="Yacute" unicode="&#xdd;" horiz-adv-x="1146" 
d="M614 481v-481h-82v481l-481 1116h88l434 -1013l435 1013h88zM657 1946h86l-127 -226h-86z" />
    <glyph glyph-name="Thorn" unicode="&#xde;" horiz-adv-x="1146" 
d="M246 1597v-337h332q69 0 132 -12t125.5 -43.5t107.5 -79.5t73 -126.5t28 -179.5v-41q0 -101 -28 -179t-73 -126.5t-107.5 -79.5t-125 -43t-132.5 -12h-332v-338h-82v1597h82zM246 416h332q36 0 70.5 4t73 14.5t71.5 28t64 46t53 65.5t35 90.5t13 117.5v33q0 89 -25 156.5
t-63 106.5t-91 63.5t-101 32.5t-100 8h-332v-766z" />
    <glyph glyph-name="germandbls" unicode="&#xdf;" horiz-adv-x="1126" 
d="M522 782v58q175 97 246.5 187.5t71.5 221.5q0 153 -76 240.5t-232 87.5q-155 0 -231 -87.5t-76 -240.5v-1249h-82v1257q0 188 97.5 295t291.5 107t292 -107t98 -295v-12q0 -131 -68 -233.5t-225 -200.5l119 -78q169 -111 243 -198t74 -205v-8q0 -50 -8.5 -94.5t-32 -91
t-61 -80t-100.5 -55t-146 -21.5t-146 21.5t-100.5 54.5t-61 79.5t-32 90.5t-8.5 93v9h82q0 -271 266 -271t266 271q0 43 -14 81t-36.5 69.5t-65.5 68t-86 66.5t-113 75z" />
    <glyph glyph-name="agrave" unicode="&#xe0;" horiz-adv-x="1024" 
d="M829 0l-20 164q-137 -184 -399 -184q-139 0 -223.5 78t-84.5 208v21q0 68 21 121.5t53 87t80 58t92 36.5t98 20l353 56v41q0 165 -64 243t-223 78q-85 0 -143.5 -23t-89 -67t-42.5 -94t-12 -117h-82v18q0 52 8.5 98t33.5 96t64.5 85.5t107 58.5t155.5 23q103 0 176.5 -29
t114.5 -84.5t59.5 -125t18.5 -160.5v-400l10 -307h-62zM420 57q265 0 379 205v328l-359 -60q-256 -45 -256 -243v-21q0 -89 60 -149t176 -60zM285 1597h86l184 -327h-86z" />
    <glyph glyph-name="aacute" unicode="&#xe1;" horiz-adv-x="1024" 
d="M829 0l-20 164q-137 -184 -399 -184q-139 0 -223.5 78t-84.5 208v21q0 68 21 121.5t53 87t80 58t92 36.5t98 20l353 56v41q0 165 -64 243t-223 78q-85 0 -143.5 -23t-89 -67t-42.5 -94t-12 -117h-82v18q0 52 8.5 98t33.5 96t64.5 85.5t107 58.5t155.5 23q103 0 176.5 -29
t114.5 -84.5t59.5 -125t18.5 -160.5v-400l10 -307h-62zM420 57q265 0 379 205v328l-359 -60q-256 -45 -256 -243v-21q0 -89 60 -149t176 -60zM653 1597h86l-184 -327h-86z" />
    <glyph glyph-name="acircumflex" unicode="&#xe2;" horiz-adv-x="1024" 
d="M829 0l-20 164q-137 -184 -399 -184q-139 0 -223.5 78t-84.5 208v21q0 68 21 121.5t53 87t80 58t92 36.5t98 20l353 56v41q0 165 -64 243t-223 78q-85 0 -143.5 -23t-89 -67t-42.5 -94t-12 -117h-82v18q0 52 8.5 98t33.5 96t64.5 85.5t107 58.5t155.5 23q103 0 176.5 -29
t114.5 -84.5t59.5 -125t18.5 -160.5v-400l10 -307h-62zM420 57q265 0 379 205v328l-359 -60q-256 -45 -256 -243v-21q0 -89 60 -149t176 -60zM307 1270h-92l266 327h62l266 -327h-92l-205 254z" />
    <glyph glyph-name="atilde" unicode="&#xe3;" horiz-adv-x="1024" 
d="M829 0l-20 164q-137 -184 -399 -184q-139 0 -223.5 78t-84.5 208v21q0 68 21 121.5t53 87t80 58t92 36.5t98 20l353 56v41q0 165 -64 243t-223 78q-85 0 -143.5 -23t-89 -67t-42.5 -94t-12 -117h-82v18q0 52 8.5 98t33.5 96t64.5 85.5t107 58.5t155.5 23q103 0 176.5 -29
t114.5 -84.5t59.5 -125t18.5 -160.5v-400l10 -307h-62zM420 57q265 0 379 205v328l-359 -60q-256 -45 -256 -243v-21q0 -89 60 -149t176 -60zM727 1509h72q0 -86 -38 -129t-106 -43q-40 0 -82 19t-71.5 42.5t-65 42.5t-63.5 19q-76 0 -76 -102h-72q0 86 38 129t106 43
q40 0 82 -19t71.5 -42.5t65 -42.5t63.5 -19q76 0 76 102z" />
    <glyph glyph-name="adieresis" unicode="&#xe4;" horiz-adv-x="1024" 
d="M829 0l-20 164q-137 -184 -399 -184q-139 0 -223.5 78t-84.5 208v21q0 68 21 121.5t53 87t80 58t92 36.5t98 20l353 56v41q0 165 -64 243t-223 78q-85 0 -143.5 -23t-89 -67t-42.5 -94t-12 -117h-82v18q0 52 8.5 98t33.5 96t64.5 85.5t107 58.5t155.5 23q103 0 176.5 -29
t114.5 -84.5t59.5 -125t18.5 -160.5v-400l10 -307h-62zM420 57q265 0 379 205v328l-359 -60q-256 -45 -256 -243v-21q0 -89 60 -149t176 -60zM420 1505v-123h-123v123h123zM727 1505v-123h-123v123h123z" />
    <glyph glyph-name="aring" unicode="&#xe5;" horiz-adv-x="1024" 
d="M102 266v21q0 68 21 121.5t53 87t80 58t92 36.5t98 20l353 56v41q0 165 -64 243t-223 78q-85 0 -143.5 -23t-89 -67t-42.5 -94t-12 -117h-82v18q0 52 8.5 98t33.5 96t64.5 85.5t107 58.5t155.5 23q103 0 176.5 -29t114.5 -84.5t59.5 -125t18.5 -160.5v-400l10 -307h-62
l-20 164q-137 -184 -399 -184q-139 0 -223.5 78t-84.5 208zM420 57q265 0 379 205v328l-359 -60q-256 -45 -256 -243v-21q0 -89 60 -149t176 -60zM317 1434q0 76 54 130t131 54q76 0 130 -54t54 -130q0 -77 -54 -131t-130 -54t-130.5 54.5t-54.5 130.5zM383 1434
q0 -50 34.5 -84.5t84.5 -34.5t84.5 34.5t34.5 84.5q0 49 -34.5 83.5t-84.5 34.5t-84.5 -34.5t-34.5 -83.5z" />
    <glyph glyph-name="ae" unicode="&#xe6;" horiz-adv-x="1792" 
d="M1679 504h-794q3 -209 92.5 -328t271.5 -119q90 0 160 26.5t109.5 69.5t59 92.5t19.5 102.5h82v-8q0 -61 -25.5 -122.5t-75 -115.5t-135.5 -88t-194 -34q-282 0 -395 245q-22 -45 -58.5 -85.5t-90 -78t-130 -59.5t-165.5 -22q-139 0 -223.5 78t-84.5 208v21
q0 68 21 121.5t53 87t80 58t92 36.5t98 20l353 56v41q0 165 -64 243t-223 78q-85 0 -143.5 -23t-89 -67t-42.5 -94t-12 -117h-82v18q0 52 8.5 98t33.5 96t64.5 85.5t107 58.5t155.5 23q157 0 238 -66.5t106 -189.5q101 256 383 256q90 0 164 -28t124.5 -77.5t85 -118.5
t50.5 -148.5t16 -170.5v-59zM801 266l22 47q-24 95 -24 209v68l-359 -60q-256 -45 -256 -243v-21q0 -89 60 -149t176 -60q267 0 381 209zM1239 1028q-174 0 -262.5 -119t-91.5 -327h708q-5 208 -93 327t-261 119z" />
    <glyph glyph-name="ccedilla" unicode="&#xe7;" horiz-adv-x="1064" 
d="M381 -385l27 61q58 -38 143 -38q73 0 107 18.5t34 64.5q0 80 -133 80l-53 -4l-35 33l55 150q-106 5 -187 49.5t-129.5 119t-72.5 168.5t-24 205v41q0 91 16 170.5t50.5 148.5t85 118.5t124.5 77.5t164 28q85 0 154.5 -24t114 -61.5t74.5 -87.5t43 -99.5t13 -98.5v-39h-82
q0 71 -17.5 129.5t-54.5 105t-99.5 72t-145.5 25.5q-177 0 -265.5 -125t-88.5 -340v-41q0 -215 88.5 -340t265.5 -125q86 0 149.5 25.5t99 71t52 99t16.5 116.5h82v-29q0 -58 -19.5 -115.5t-59 -110.5t-110.5 -89t-163 -43l-41 -113h10q35 0 66.5 -7t60.5 -22.5t46.5 -45.5
t17.5 -70q0 -80 -54 -117t-145 -37q-116 0 -180 45z" />
    <glyph glyph-name="egrave" unicode="&#xe8;" horiz-adv-x="1105" 
d="M993 504h-794q3 -209 92.5 -328t271.5 -119q90 0 160 26.5t109.5 69.5t59 92.5t19.5 102.5h82v-8q0 -61 -25.5 -122.5t-75 -115.5t-135.5 -88t-194 -34q-115 0 -203.5 42.5t-141 117.5t-79 171.5t-26.5 210.5v41q0 91 16 170.5t50.5 148.5t85 118.5t124.5 77.5t164 28
t164 -28t124.5 -77.5t85 -118.5t50.5 -148.5t16 -170.5v-59zM553 1028q-174 0 -262.5 -119t-91.5 -327h708q-5 208 -93 327t-261 119zM326 1597h86l184 -327h-86z" />
    <glyph glyph-name="eacute" unicode="&#xe9;" horiz-adv-x="1105" 
d="M993 504h-794q3 -209 92.5 -328t271.5 -119q90 0 160 26.5t109.5 69.5t59 92.5t19.5 102.5h82v-8q0 -61 -25.5 -122.5t-75 -115.5t-135.5 -88t-194 -34q-115 0 -203.5 42.5t-141 117.5t-79 171.5t-26.5 210.5v41q0 91 16 170.5t50.5 148.5t85 118.5t124.5 77.5t164 28
t164 -28t124.5 -77.5t85 -118.5t50.5 -148.5t16 -170.5v-59zM553 1028q-174 0 -262.5 -119t-91.5 -327h708q-5 208 -93 327t-261 119zM694 1597h86l-184 -327h-86z" />
    <glyph glyph-name="ecircumflex" unicode="&#xea;" horiz-adv-x="1105" 
d="M993 504h-794q3 -209 92.5 -328t271.5 -119q90 0 160 26.5t109.5 69.5t59 92.5t19.5 102.5h82v-8q0 -61 -25.5 -122.5t-75 -115.5t-135.5 -88t-194 -34q-115 0 -203.5 42.5t-141 117.5t-79 171.5t-26.5 210.5v41q0 91 16 170.5t50.5 148.5t85 118.5t124.5 77.5t164 28
t164 -28t124.5 -77.5t85 -118.5t50.5 -148.5t16 -170.5v-59zM553 1028q-174 0 -262.5 -119t-91.5 -327h708q-5 208 -93 327t-261 119zM348 1270h-92l266 327h62l266 -327h-92l-205 254z" />
    <glyph glyph-name="edieresis" unicode="&#xeb;" horiz-adv-x="1105" 
d="M993 504h-794q3 -209 92.5 -328t271.5 -119q90 0 160 26.5t109.5 69.5t59 92.5t19.5 102.5h82v-8q0 -61 -25.5 -122.5t-75 -115.5t-135.5 -88t-194 -34q-115 0 -203.5 42.5t-141 117.5t-79 171.5t-26.5 210.5v41q0 91 16 170.5t50.5 148.5t85 118.5t124.5 77.5t164 28
t164 -28t124.5 -77.5t85 -118.5t50.5 -148.5t16 -170.5v-59zM553 1028q-174 0 -262.5 -119t-91.5 -327h708q-5 208 -93 327t-261 119zM461 1505v-123h-123v123h123zM768 1505v-123h-123v123h123z" />
    <glyph glyph-name="igrave" unicode="&#xec;" horiz-adv-x="409" 
d="M164 0v1085h82v-1085h-82zM-23 1597h86l185 -327h-86z" />
    <glyph glyph-name="iacute" unicode="&#xed;" horiz-adv-x="409" 
d="M164 0v1085h82v-1085h-82zM346 1597h86l-184 -327h-86z" />
    <glyph glyph-name="icircumflex" unicode="&#xee;" horiz-adv-x="409" 
d="M164 0v1085h82v-1085h-82zM0 1270h-92l266 327h62l266 -327h-92l-205 254z" />
    <glyph glyph-name="idieresis" unicode="&#xef;" horiz-adv-x="409" 
d="M164 0v1085h82v-1085h-82zM420 1505v-123h-123v123h123zM113 1505v-123h-123v123h123z" />
    <glyph glyph-name="eth" unicode="&#xf0;" horiz-adv-x="1105" 
d="M113 1581v78q257 -23 442 -139l238 139v-88l-168 -98q64 -49 125 -113q69 -73 119.5 -176t76 -214t36.5 -210.5t11 -196.5v-41q0 -114 -26 -210.5t-77.5 -171.5t-138 -117.5t-198.5 -42.5t-198.5 42.5t-138 117.5t-77.5 171.5t-26 210.5v41q0 91 16 170.5t50.5 148.5
t85 118.5t124.5 77.5t164 28q215 0 317 -156q-65 231 -186 357q-68 69 -139 118l-346 -202v88l272 159q-155 85 -358 111zM553 57q177 0 265.5 125t88.5 340v41q0 215 -88.5 340t-265.5 125t-265.5 -125t-88.5 -340v-41q0 -215 88.5 -340t265.5 -125z" />
    <glyph glyph-name="ntilde" unicode="&#xf1;" horiz-adv-x="1044" 
d="M911 0h-82v758q0 139 -71.5 204.5t-194.5 65.5q-221 0 -338 -188v-840h-82v778l-10 307h62l18 -159q50 79 142.5 129.5t228.5 50.5q153 0 240 -91.5t87 -246.5v-768zM743 1509h72q0 -86 -37.5 -129t-105.5 -43q-40 0 -82 19t-72 42.5t-65.5 42.5t-63.5 19q-76 0 -76 -102
h-71q0 86 37.5 129t105.5 43q51 0 103.5 -31t98.5 -61.5t81 -30.5q75 0 75 102z" />
    <glyph glyph-name="ograve" unicode="&#xf2;" horiz-adv-x="1105" 
d="M553 -20q-112 0 -198.5 42.5t-138 117.5t-77.5 171.5t-26 210.5v41q0 91 16 170.5t50.5 148.5t85 118.5t124.5 77.5t164 28t164 -28t124.5 -77.5t85 -118.5t50.5 -148.5t16 -170.5v-41q0 -114 -26 -210.5t-77.5 -171.5t-138 -117.5t-198.5 -42.5zM553 57q177 0 265.5 125
t88.5 340v41q0 215 -88.5 340t-265.5 125t-265.5 -125t-88.5 -340v-41q0 -215 88.5 -340t265.5 -125zM326 1597h86l184 -327h-86z" />
    <glyph glyph-name="oacute" unicode="&#xf3;" horiz-adv-x="1105" 
d="M553 -20q-112 0 -198.5 42.5t-138 117.5t-77.5 171.5t-26 210.5v41q0 91 16 170.5t50.5 148.5t85 118.5t124.5 77.5t164 28t164 -28t124.5 -77.5t85 -118.5t50.5 -148.5t16 -170.5v-41q0 -114 -26 -210.5t-77.5 -171.5t-138 -117.5t-198.5 -42.5zM553 57q177 0 265.5 125
t88.5 340v41q0 215 -88.5 340t-265.5 125t-265.5 -125t-88.5 -340v-41q0 -215 88.5 -340t265.5 -125zM694 1597h86l-184 -327h-86z" />
    <glyph glyph-name="ocircumflex" unicode="&#xf4;" horiz-adv-x="1105" 
d="M553 -20q-112 0 -198.5 42.5t-138 117.5t-77.5 171.5t-26 210.5v41q0 91 16 170.5t50.5 148.5t85 118.5t124.5 77.5t164 28t164 -28t124.5 -77.5t85 -118.5t50.5 -148.5t16 -170.5v-41q0 -114 -26 -210.5t-77.5 -171.5t-138 -117.5t-198.5 -42.5zM553 57q177 0 265.5 125
t88.5 340v41q0 215 -88.5 340t-265.5 125t-265.5 -125t-88.5 -340v-41q0 -215 88.5 -340t265.5 -125zM348 1270h-92l266 327h62l266 -327h-92l-205 254z" />
    <glyph glyph-name="otilde" unicode="&#xf5;" horiz-adv-x="1105" 
d="M553 -20q-112 0 -198.5 42.5t-138 117.5t-77.5 171.5t-26 210.5v41q0 91 16 170.5t50.5 148.5t85 118.5t124.5 77.5t164 28t164 -28t124.5 -77.5t85 -118.5t50.5 -148.5t16 -170.5v-41q0 -114 -26 -210.5t-77.5 -171.5t-138 -117.5t-198.5 -42.5zM553 57q177 0 265.5 125
t88.5 340v41q0 215 -88.5 340t-265.5 125t-265.5 -125t-88.5 -340v-41q0 -215 88.5 -340t265.5 -125zM768 1509h72q0 -86 -38 -129t-106 -43q-40 0 -82 19t-71.5 42.5t-65 42.5t-63.5 19q-76 0 -76 -102h-72q0 86 38 129t106 43q40 0 82 -19t71.5 -42.5t65 -42.5t63.5 -19
q76 0 76 102z" />
    <glyph glyph-name="odieresis" unicode="&#xf6;" horiz-adv-x="1105" 
d="M553 -20q-112 0 -198.5 42.5t-138 117.5t-77.5 171.5t-26 210.5v41q0 91 16 170.5t50.5 148.5t85 118.5t124.5 77.5t164 28t164 -28t124.5 -77.5t85 -118.5t50.5 -148.5t16 -170.5v-41q0 -114 -26 -210.5t-77.5 -171.5t-138 -117.5t-198.5 -42.5zM553 57q177 0 265.5 125
t88.5 340v41q0 215 -88.5 340t-265.5 125t-265.5 -125t-88.5 -340v-41q0 -215 88.5 -340t265.5 -125zM461 1505v-123h-123v123h123zM768 1505v-123h-123v123h123z" />
    <glyph glyph-name="divide" unicode="&#xf7;" horiz-adv-x="1228" 
d="M102 758v82h1024v-82h-1024zM676 410v-123h-123v123h123zM676 1311v-123h-123v123h123z" />
    <glyph glyph-name="oslash" unicode="&#xf8;" horiz-adv-x="1105" 
d="M993 1085l-104 -141q104 -142 104 -381v-41q0 -114 -26 -210.5t-77.5 -171.5t-138 -117.5t-198.5 -42.5q-179 0 -289 104l-61 -84h-90l102 141q-102 143 -102 381v41q0 91 16 170.5t50.5 148.5t85 118.5t124.5 77.5t164 28q179 0 289 -107l61 86h90zM199 522
q0 -197 67 -311l527 723q-91 94 -240 94q-177 0 -265.5 -125t-88.5 -340v-41zM907 563q0 192 -69 309l-527 -720q89 -95 242 -95q177 0 265.5 125t88.5 340v41z" />
    <glyph glyph-name="ugrave" unicode="&#xf9;" horiz-adv-x="1044" 
d="M133 1085h82v-757q0 -140 71.5 -205.5t194.5 -65.5q220 0 338 189v839h82v-778l10 -307h-61l-21 158q-49 -79 -141 -128.5t-227 -49.5q-153 0 -240.5 91t-87.5 246v768zM289 1597h86l184 -327h-86z" />
    <glyph glyph-name="uacute" unicode="&#xfa;" horiz-adv-x="1044" 
d="M133 1085h82v-757q0 -140 71.5 -205.5t194.5 -65.5q220 0 338 189v839h82v-778l10 -307h-61l-21 158q-49 -79 -141 -128.5t-227 -49.5q-153 0 -240.5 91t-87.5 246v768zM657 1597h86l-184 -327h-86z" />
    <glyph glyph-name="ucircumflex" unicode="&#xfb;" horiz-adv-x="1044" 
d="M133 1085h82v-757q0 -140 71.5 -205.5t194.5 -65.5q220 0 338 189v839h82v-778l10 -307h-61l-21 158q-49 -79 -141 -128.5t-227 -49.5q-153 0 -240.5 91t-87.5 246v768zM311 1270h-92l266 327h62l266 -327h-92l-205 254z" />
    <glyph glyph-name="udieresis" unicode="&#xfc;" horiz-adv-x="1044" 
d="M133 1085h82v-757q0 -140 71.5 -205.5t194.5 -65.5q220 0 338 189v839h82v-778l10 -307h-61l-21 158q-49 -79 -141 -128.5t-227 -49.5q-153 0 -240.5 91t-87.5 246v768zM424 1505v-123h-123v123h123zM731 1505v-123h-123v123h123z" />
    <glyph glyph-name="yacute" unicode="&#xfd;" horiz-adv-x="946" 
d="M492 133l346 952h86l-392 -1048l-159 -447h-90l168 447l-392 1048h86zM633 1597h86l-184 -327h-86z" />
    <glyph glyph-name="thorn" unicode="&#xfe;" horiz-adv-x="1075" 
d="M143 1638h82v-688q46 70 125 113t193 43q87 0 157.5 -28t119 -77.5t81 -118.5t47.5 -148.5t15 -170.5v-41q0 -114 -24.5 -210.5t-73.5 -171.5t-131.5 -117.5t-190.5 -42.5q-218 0 -318 153v-543h-82v2048zM225 840v-594q118 -189 307 -189q169 0 257 123.5t88 341.5v41
q0 218 -88 341.5t-257 123.5q-190 0 -307 -188z" />
    <glyph glyph-name="ydieresis" unicode="&#xff;" horiz-adv-x="946" 
d="M492 133l346 952h86l-392 -1048l-159 -447h-90l168 447l-392 1048h86zM707 1505v-123h-123v123h123zM399 1505v-123h-123v123h123z" />
    <glyph glyph-name="Amacron" unicode="&#x100;" horiz-adv-x="1228" 
d="M553 1618h123l483 -1618h-90l-129 432h-653l-127 -432h-90zM614 1536l-305 -1026h609zM410 1792v82h409v-82h-409z" />
    <glyph glyph-name="amacron" unicode="&#x101;" horiz-adv-x="1024" 
d="M829 0l-20 164q-137 -184 -399 -184q-139 0 -223.5 78t-84.5 208v21q0 68 21 121.5t53 87t80 58t92 36.5t98 20l353 56v41q0 165 -64 243t-223 78q-85 0 -143.5 -23t-89 -67t-42.5 -94t-12 -117h-82v18q0 52 8.5 98t33.5 96t64.5 85.5t107 58.5t155.5 23q103 0 176.5 -29
t114.5 -84.5t59.5 -125t18.5 -160.5v-400l10 -307h-62zM420 57q265 0 379 205v328l-359 -60q-256 -45 -256 -243v-21q0 -89 60 -149t176 -60zM297 1393v82h430v-82h-430z" />
    <glyph glyph-name="Abreve" unicode="&#x102;" horiz-adv-x="1228" 
d="M553 1618h123l483 -1618h-90l-129 432h-653l-127 -432h-90zM614 1536l-305 -1026h609zM614 1700q-126 0 -198 68t-72 178h74q0 -80 50 -129.5t146 -49.5t146.5 49.5t50.5 129.5h74q0 -110 -72.5 -178t-198.5 -68z" />
    <glyph glyph-name="abreve" unicode="&#x103;" horiz-adv-x="1024" 
d="M829 0l-20 164q-137 -184 -399 -184q-139 0 -223.5 78t-84.5 208v21q0 68 21 121.5t53 87t80 58t92 36.5t98 20l353 56v41q0 165 -64 243t-223 78q-85 0 -143.5 -23t-89 -67t-42.5 -94t-12 -117h-82v18q0 52 8.5 98t33.5 96t64.5 85.5t107 58.5t155.5 23q103 0 176.5 -29
t114.5 -84.5t59.5 -125t18.5 -160.5v-400l10 -307h-62zM420 57q265 0 379 205v328l-359 -60q-256 -45 -256 -243v-21q0 -89 60 -149t176 -60zM512 1249q-156 0 -233.5 93.5t-77.5 254.5h73q0 -129 57 -204.5t181 -75.5t181 75.5t57 204.5h73q0 -161 -77.5 -254.5
t-233.5 -93.5z" />
    <glyph glyph-name="Aogonek" unicode="&#x104;" horiz-adv-x="1228" 
d="M967 -240q0 -58 40.5 -90t110.5 -32q71 0 125 28l25 -57q-62 -39 -156 -39q-100 0 -156.5 47.5t-56.5 142.5q0 161 164 258l-123 414h-653l-127 -432h-90l483 1618h123l483 -1618q-192 -88 -192 -240zM614 1536l-305 -1026h609z" />
    <glyph glyph-name="aogonek" unicode="&#x105;" horiz-adv-x="1024" 
d="M690 -240q0 -58 41 -90t111 -32q71 0 125 28l24 -57q-62 -39 -155 -39q-100 0 -156.5 47.5t-56.5 142.5q0 179 200 279l-14 125q-137 -184 -399 -184q-139 0 -223.5 78t-84.5 208v21q0 68 21 121.5t53 87t80 58t92 36.5t98 20l353 56v41q0 165 -64 243t-223 78
q-85 0 -143.5 -23t-89 -67t-42.5 -94t-12 -117h-82v18q0 52 8.5 98t33.5 96t64.5 85.5t107 58.5t155.5 23q103 0 176.5 -29t114.5 -84.5t59.5 -125t18.5 -160.5v-400l10 -307h-8q-193 -88 -193 -240zM420 57q265 0 379 205v328l-359 -60q-256 -45 -256 -243v-21
q0 -89 60 -149t176 -60z" />
    <glyph glyph-name="Cacute" unicode="&#x106;" horiz-adv-x="1243" 
d="M215 758q0 -370 106.5 -535.5t327.5 -165.5h13q198 0 290 114t92 341h86v-20q0 -244 -119.5 -378t-359.5 -134q-177 0 -291 79t-172.5 251.5t-58.5 447.5v82q0 275 58.5 447.5t172.5 251.5t291 79q242 0 360.5 -138.5t118.5 -404.5v-51h-86q0 274 -91 395t-291 121h-13
q-219 0 -326.5 -165.5t-107.5 -534.5v-82zM735 1946h86l-127 -226h-86z" />
    <glyph glyph-name="cacute" unicode="&#x107;" horiz-adv-x="1064" 
d="M199 522q0 -215 88.5 -340t265.5 -125q86 0 149.5 25.5t99 71t52 99t16.5 116.5h82v-29q0 -49 -13 -97.5t-43 -96.5t-74.5 -84.5t-114 -59t-154.5 -22.5q-112 0 -198.5 42.5t-138 117.5t-77.5 171.5t-26 210.5v41q0 91 16 170.5t50.5 148.5t85 118.5t124.5 77.5t164 28
q85 0 154.5 -24t114 -61.5t74.5 -87.5t43 -99.5t13 -98.5v-39h-82q0 71 -17.5 129.5t-54.5 105t-99.5 72t-145.5 25.5q-177 0 -265.5 -125t-88.5 -340v-41zM694 1597h86l-184 -327h-86z" />
    <glyph glyph-name="Ccircumflex" unicode="&#x108;" horiz-adv-x="1243" 
d="M215 758q0 -370 106.5 -535.5t327.5 -165.5h13q198 0 290 114t92 341h86v-20q0 -244 -119.5 -378t-359.5 -134q-177 0 -291 79t-172.5 251.5t-58.5 447.5v82q0 275 58.5 447.5t172.5 251.5t291 79q242 0 360.5 -138.5t118.5 -404.5v-51h-86q0 274 -91 395t-291 121h-13
q-219 0 -326.5 -165.5t-107.5 -534.5v-82zM508 1720h-92l205 226h61l205 -226h-92l-144 158z" />
    <glyph glyph-name="ccircumflex" unicode="&#x109;" horiz-adv-x="1064" 
d="M199 522q0 -215 88.5 -340t265.5 -125q86 0 149.5 25.5t99 71t52 99t16.5 116.5h82v-29q0 -49 -13 -97.5t-43 -96.5t-74.5 -84.5t-114 -59t-154.5 -22.5q-112 0 -198.5 42.5t-138 117.5t-77.5 171.5t-26 210.5v41q0 91 16 170.5t50.5 148.5t85 118.5t124.5 77.5t164 28
q85 0 154.5 -24t114 -61.5t74.5 -87.5t43 -99.5t13 -98.5v-39h-82q0 71 -17.5 129.5t-54.5 105t-99.5 72t-145.5 25.5q-177 0 -265.5 -125t-88.5 -340v-41zM348 1270h-92l266 327h62l266 -327h-92l-205 254z" />
    <glyph glyph-name="Cdotaccent" unicode="&#x10a;" horiz-adv-x="1243" 
d="M215 758q0 -370 106.5 -535.5t327.5 -165.5h13q198 0 290 114t92 341h86v-20q0 -244 -119.5 -378t-359.5 -134q-177 0 -291 79t-172.5 251.5t-58.5 447.5v82q0 275 58.5 447.5t172.5 251.5t291 79q242 0 360.5 -138.5t118.5 -404.5v-51h-86q0 274 -91 395t-291 121h-13
q-219 0 -326.5 -165.5t-107.5 -534.5v-82zM713 1894v-122h-123v122h123z" />
    <glyph glyph-name="cdotaccent" unicode="&#x10b;" horiz-adv-x="1064" 
d="M199 522q0 -215 88.5 -340t265.5 -125q86 0 149.5 25.5t99 71t52 99t16.5 116.5h82v-29q0 -49 -13 -97.5t-43 -96.5t-74.5 -84.5t-114 -59t-154.5 -22.5q-112 0 -198.5 42.5t-138 117.5t-77.5 171.5t-26 210.5v41q0 91 16 170.5t50.5 148.5t85 118.5t124.5 77.5t164 28
q85 0 154.5 -24t114 -61.5t74.5 -87.5t43 -99.5t13 -98.5v-39h-82q0 71 -17.5 129.5t-54.5 105t-99.5 72t-145.5 25.5q-177 0 -265.5 -125t-88.5 -340v-41zM614 1505v-123h-122v123h122z" />
    <glyph glyph-name="Ccaron" unicode="&#x10c;" horiz-adv-x="1243" 
d="M215 758q0 -370 106.5 -535.5t327.5 -165.5h13q198 0 290 114t92 341h86v-20q0 -244 -119.5 -378t-359.5 -134q-177 0 -291 79t-172.5 251.5t-58.5 447.5v82q0 275 58.5 447.5t172.5 251.5t291 79q242 0 360.5 -138.5t118.5 -404.5v-51h-86q0 274 -91 395t-291 121h-13
q-219 0 -326.5 -165.5t-107.5 -534.5v-82zM416 1946h92l143 -158l144 158h92l-205 -226h-61z" />
    <glyph glyph-name="ccaron" unicode="&#x10d;" horiz-adv-x="1064" 
d="M199 522q0 -215 88.5 -340t265.5 -125q86 0 149.5 25.5t99 71t52 99t16.5 116.5h82v-29q0 -49 -13 -97.5t-43 -96.5t-74.5 -84.5t-114 -59t-154.5 -22.5q-112 0 -198.5 42.5t-138 117.5t-77.5 171.5t-26 210.5v41q0 91 16 170.5t50.5 148.5t85 118.5t124.5 77.5t164 28
q85 0 154.5 -24t114 -61.5t74.5 -87.5t43 -99.5t13 -98.5v-39h-82q0 71 -17.5 129.5t-54.5 105t-99.5 72t-145.5 25.5q-177 0 -265.5 -125t-88.5 -340v-41zM256 1597h92l205 -254l205 254h92l-266 -327h-62z" />
    <glyph glyph-name="Dcaron" unicode="&#x10e;" horiz-adv-x="1290" 
d="M1161 758q0 -758 -598 -758h-399v1597h399q598 0 598 -757v-82zM246 78h307q98 0 176.5 22.5t144 72.5t109.5 128.5t68 193.5t24 263v82q0 148 -24 263t-68 193.5t-109.5 128.5t-144 72.5t-176.5 22.5h-307v-1442zM348 1946h92l144 -158l143 158h92l-205 -226h-61z" />
    <glyph glyph-name="dcaron" unicode="&#x10f;" horiz-adv-x="1075" 
d="M532 1106q212 0 318 -156v688h82v-1331l10 -307h-61l-21 154q-44 -77 -126 -125.5t-202 -48.5q-108 0 -190 42.5t-131 118t-73.5 171t-24.5 210.5v41q0 115 24.5 211t73.5 171.5t131 118t190 42.5zM850 246v594q-117 188 -307 188q-169 0 -256.5 -123.5t-87.5 -341.5v-41
q0 -218 87.5 -341.5t256.5 -123.5q189 0 307 189zM1096 1638h92l-31 -368h-61v368z" />
    <glyph glyph-name="Dcroat" unicode="&#x110;" horiz-adv-x="1413" 
d="M41 776v78h246v743h399q598 0 598 -757v-82q0 -758 -598 -758h-399v776h-246zM369 1520v-666h471v-78h-471v-698h307q98 0 176.5 22.5t144 72.5t109.5 128.5t68 193.5t24 263v82q0 148 -24 263t-68 193.5t-109.5 128.5t-144 72.5t-176.5 22.5h-307z" />
    <glyph glyph-name="dcroat" unicode="&#x111;" horiz-adv-x="1075" 
d="M1137 1401v-78h-205v-1016l10 -307h-61l-21 154q-44 -77 -126 -125.5t-202 -48.5q-108 0 -190 42.5t-131 118t-73.5 171t-24.5 210.5v41q0 115 24.5 211t73.5 171.5t131 118t190 42.5q212 0 318 -156v373h-287v78h287v237h82v-237h205zM850 840q-117 188 -307 188
q-169 0 -256.5 -123.5t-87.5 -341.5v-41q0 -218 87.5 -341.5t256.5 -123.5q189 0 307 189v594z" />
    <glyph glyph-name="Emacron" unicode="&#x112;" horiz-adv-x="1105" 
d="M164 1597h860v-77h-778v-666h676v-78h-676v-698h778v-78h-860v1597zM410 1792v82h409v-82h-409z" />
    <glyph glyph-name="emacron" unicode="&#x113;" horiz-adv-x="1105" 
d="M993 504h-794q3 -209 92.5 -328t271.5 -119q90 0 160 26.5t109.5 69.5t59 92.5t19.5 102.5h82v-8q0 -61 -25.5 -122.5t-75 -115.5t-135.5 -88t-194 -34q-115 0 -203.5 42.5t-141 117.5t-79 171.5t-26.5 210.5v41q0 91 16 170.5t50.5 148.5t85 118.5t124.5 77.5t164 28
t164 -28t124.5 -77.5t85 -118.5t50.5 -148.5t16 -170.5v-59zM553 1028q-174 0 -262.5 -119t-91.5 -327h708q-5 208 -93 327t-261 119zM338 1393v82h430v-82h-430z" />
    <glyph glyph-name="Ebreve" unicode="&#x114;" horiz-adv-x="1105" 
d="M164 1597h860v-77h-778v-666h676v-78h-676v-698h778v-78h-860v1597zM614 1700q-126 0 -198 68t-72 178h74q0 -80 50 -129.5t146 -49.5t146.5 49.5t50.5 129.5h74q0 -110 -72.5 -178t-198.5 -68z" />
    <glyph glyph-name="ebreve" unicode="&#x115;" horiz-adv-x="1105" 
d="M993 504h-794q3 -209 92.5 -328t271.5 -119q90 0 160 26.5t109.5 69.5t59 92.5t19.5 102.5h82v-8q0 -61 -25.5 -122.5t-75 -115.5t-135.5 -88t-194 -34q-115 0 -203.5 42.5t-141 117.5t-79 171.5t-26.5 210.5v41q0 91 16 170.5t50.5 148.5t85 118.5t124.5 77.5t164 28
t164 -28t124.5 -77.5t85 -118.5t50.5 -148.5t16 -170.5v-59zM553 1028q-174 0 -262.5 -119t-91.5 -327h708q-5 208 -93 327t-261 119zM553 1249q-156 0 -233.5 93.5t-77.5 254.5h73q0 -129 57 -204.5t181 -75.5t181 75.5t57 204.5h73q0 -161 -77.5 -254.5t-233.5 -93.5z" />
    <glyph glyph-name="Edotaccent" unicode="&#x116;" horiz-adv-x="1105" 
d="M164 1597h860v-77h-778v-666h676v-78h-676v-698h778v-78h-860v1597zM676 1894v-122h-123v122h123z" />
    <glyph glyph-name="edotaccent" unicode="&#x117;" horiz-adv-x="1105" 
d="M993 504h-794q3 -209 92.5 -328t271.5 -119q90 0 160 26.5t109.5 69.5t59 92.5t19.5 102.5h82v-8q0 -61 -25.5 -122.5t-75 -115.5t-135.5 -88t-194 -34q-115 0 -203.5 42.5t-141 117.5t-79 171.5t-26.5 210.5v41q0 91 16 170.5t50.5 148.5t85 118.5t124.5 77.5t164 28
t164 -28t124.5 -77.5t85 -118.5t50.5 -148.5t16 -170.5v-59zM553 1028q-174 0 -262.5 -119t-91.5 -327h708q-5 208 -93 327t-261 119zM614 1505v-123h-122v123h122z" />
    <glyph glyph-name="Eogonek" unicode="&#x118;" horiz-adv-x="1105" 
d="M831 -240q0 -58 41 -90t111 -32q71 0 125 28l25 -57q-62 -39 -156 -39q-100 0 -156.5 47.5t-56.5 142.5q0 148 135 240h-735v1597h860v-77h-778v-666h676v-78h-676v-698h778v-78q-193 -88 -193 -240z" />
    <glyph glyph-name="eogonek" unicode="&#x119;" horiz-adv-x="1105" 
d="M524 -240q0 -58 41 -90t111 -32q71 0 125 28l24 -57q-62 -39 -155 -39q-100 0 -156.5 47.5t-56.5 142.5q0 129 108 220h-2q-115 0 -203.5 42.5t-141 117.5t-79 171.5t-26.5 210.5v41q0 91 16 170.5t50.5 148.5t85 118.5t124.5 77.5t164 28t164 -28t124.5 -77.5t85 -118.5
t50.5 -148.5t16 -170.5v-59h-794q3 -209 92.5 -328t271.5 -119q90 0 160 26.5t109.5 69.5t59 92.5t19.5 102.5h82v-8q0 -107 -69.5 -203.5t-206.5 -136.5q-74 -21 -133.5 -86.5t-59.5 -153.5zM553 1028q-174 0 -262.5 -119t-91.5 -327h708q-5 208 -93 327t-261 119z" />
    <glyph glyph-name="Ecaron" unicode="&#x11a;" horiz-adv-x="1105" 
d="M164 1597h860v-77h-778v-666h676v-78h-676v-698h778v-78h-860v1597zM379 1946h92l143 -158l144 158h92l-205 -226h-61z" />
    <glyph glyph-name="ecaron" unicode="&#x11b;" horiz-adv-x="1105" 
d="M993 504h-794q3 -209 92.5 -328t271.5 -119q90 0 160 26.5t109.5 69.5t59 92.5t19.5 102.5h82v-8q0 -61 -25.5 -122.5t-75 -115.5t-135.5 -88t-194 -34q-115 0 -203.5 42.5t-141 117.5t-79 171.5t-26.5 210.5v41q0 91 16 170.5t50.5 148.5t85 118.5t124.5 77.5t164 28
t164 -28t124.5 -77.5t85 -118.5t50.5 -148.5t16 -170.5v-59zM553 1028q-174 0 -262.5 -119t-91.5 -327h708q-5 208 -93 327t-261 119zM256 1597h92l205 -254l205 254h92l-266 -327h-62z" />
    <glyph glyph-name="Gcircumflex" unicode="&#x11c;" horiz-adv-x="1306" 
d="M692 -20q-283 0 -423 185.5t-140 592.5v82q0 405 137.5 591.5t405.5 186.5q242 0 361.5 -139t119.5 -404v-51h-86q0 274 -92 395t-293 121h-12q-223 0 -339 -167.5t-116 -532.5v-82q0 -370 117 -535.5t358 -165.5h12q128 0 223.5 42.5t145.5 103.5v479h-297v78h379v-598
q-66 -77 -180 -129.5t-281 -52.5zM528 1720h-92l205 226h61l205 -226h-92l-143 158z" />
    <glyph glyph-name="gcircumflex" unicode="&#x11d;" horiz-adv-x="1075" 
d="M850 -10v225q-104 -154 -318 -154q-108 0 -190.5 40.5t-131 111.5t-73 159t-24.5 191v41q0 103 24.5 191t73 159t131 111.5t190.5 40.5q120 0 202 -48.5t126 -125.5l21 153h61l-10 -307v-798q0 -88 -21.5 -159.5t-66.5 -129t-124.5 -89.5t-187.5 -32t-187 32t-124.5 89.5
t-66.5 129t-21 159.5v20h82q0 -182 74.5 -267t242.5 -85q170 0 244 86.5t74 255.5zM850 840q-117 188 -307 188q-169 0 -256.5 -114.5t-87.5 -309.5v-41q0 -195 87.5 -309.5t256.5 -114.5q189 0 307 189v512zM328 1270h-92l266 327h61l266 -327h-92l-205 254z" />
    <glyph glyph-name="Gbreve" unicode="&#x11e;" horiz-adv-x="1306" 
d="M692 -20q-283 0 -423 185.5t-140 592.5v82q0 405 137.5 591.5t405.5 186.5q242 0 361.5 -139t119.5 -404v-51h-86q0 274 -92 395t-293 121h-12q-223 0 -339 -167.5t-116 -532.5v-82q0 -370 117 -535.5t358 -165.5h12q128 0 223.5 42.5t145.5 103.5v479h-297v78h379v-598
q-66 -77 -180 -129.5t-281 -52.5zM672 1700q-126 0 -198.5 68t-72.5 178h74q0 -80 50.5 -129.5t146.5 -49.5t146 49.5t50 129.5h74q0 -110 -72 -178t-198 -68z" />
    <glyph glyph-name="gbreve" unicode="&#x11f;" horiz-adv-x="1075" 
d="M850 -10v225q-104 -154 -318 -154q-108 0 -190.5 40.5t-131 111.5t-73 159t-24.5 191v41q0 103 24.5 191t73 159t131 111.5t190.5 40.5q120 0 202 -48.5t126 -125.5l21 153h61l-10 -307v-798q0 -88 -21.5 -159.5t-66.5 -129t-124.5 -89.5t-187.5 -32t-187 32t-124.5 89.5
t-66.5 129t-21 159.5v20h82q0 -182 74.5 -267t242.5 -85q170 0 244 86.5t74 255.5zM850 840q-117 188 -307 188q-169 0 -256.5 -114.5t-87.5 -309.5v-41q0 -195 87.5 -309.5t256.5 -114.5q189 0 307 189v512zM532 1249q-156 0 -233.5 93.5t-77.5 254.5h74
q0 -129 56.5 -204.5t180.5 -75.5t181 75.5t57 204.5h74q0 -160 -78 -254t-234 -94z" />
    <glyph glyph-name="Gdotaccent" unicode="&#x120;" horiz-adv-x="1306" 
d="M692 -20q-283 0 -423 185.5t-140 592.5v82q0 405 137.5 591.5t405.5 186.5q242 0 361.5 -139t119.5 -404v-51h-86q0 274 -92 395t-293 121h-12q-223 0 -339 -167.5t-116 -532.5v-82q0 -370 117 -535.5t358 -165.5h12q128 0 223.5 42.5t145.5 103.5v479h-297v78h379v-598
q-66 -77 -180 -129.5t-281 -52.5zM733 1894v-122h-123v122h123z" />
    <glyph glyph-name="gdotaccent" unicode="&#x121;" horiz-adv-x="1075" 
d="M850 -10v225q-104 -154 -318 -154q-108 0 -190.5 40.5t-131 111.5t-73 159t-24.5 191v41q0 103 24.5 191t73 159t131 111.5t190.5 40.5q120 0 202 -48.5t126 -125.5l21 153h61l-10 -307v-798q0 -88 -21.5 -159.5t-66.5 -129t-124.5 -89.5t-187.5 -32t-187 32t-124.5 89.5
t-66.5 129t-21 159.5v20h82q0 -182 74.5 -267t242.5 -85q170 0 244 86.5t74 255.5zM543 139q189 0 307 189v512q-117 188 -307 188q-169 0 -256.5 -114.5t-87.5 -309.5v-41q0 -195 87.5 -309.5t256.5 -114.5zM594 1505v-123h-123v123h123z" />
    <glyph glyph-name="Gcommaaccent" unicode="&#x122;" horiz-adv-x="1306" 
d="M692 -20q-283 0 -423 185.5t-140 592.5v82q0 405 137.5 591.5t405.5 186.5q242 0 361.5 -139t119.5 -404v-51h-86q0 274 -92 395t-293 121h-12q-223 0 -339 -167.5t-116 -532.5v-82q0 -370 117 -535.5t358 -165.5h12q128 0 223.5 42.5t145.5 103.5v479h-297v78h379v-598
q-66 -77 -180 -129.5t-281 -52.5zM754 -123v-98q0 -95 -50 -152t-135 -57v61q52 0 85.5 30.5t37.5 92.5h-61v123h123z" />
    <glyph glyph-name="gcommaaccent" unicode="&#x123;" horiz-adv-x="1075" 
d="M850 -10v225q-104 -154 -318 -154q-108 0 -190.5 40.5t-131 111.5t-73 159t-24.5 191v41q0 103 24.5 191t73 159t131 111.5t190.5 40.5q120 0 202 -48.5t126 -125.5l21 153h61l-10 -307v-798q0 -88 -21.5 -159.5t-66.5 -129t-124.5 -89.5t-187.5 -32t-187 32t-124.5 89.5
t-66.5 129t-21 159.5v20h82q0 -182 74.5 -267t242.5 -85q170 0 244 86.5t74 255.5zM850 328v512q-117 188 -307 188q-169 0 -256.5 -114.5t-87.5 -309.5v-41q0 -195 87.5 -309.5t256.5 -114.5q189 0 307 189zM471 1270v98q0 250 184 250v-62q-61 0 -90.5 -35.5t-32.5 -127.5
h62v-123h-123z" />
    <glyph glyph-name="Hcircumflex" unicode="&#x124;" horiz-adv-x="1290" 
d="M1044 1597h82v-1597h-82v776h-798v-776h-82v1597h82v-743h798v743zM502 1720h-92l204 226h62l205 -226h-93l-143 158z" />
    <glyph glyph-name="hcircumflex" unicode="&#x125;" horiz-adv-x="1044" 
d="M225 1638v-696q50 73 140.5 118.5t218.5 45.5q153 0 240 -91.5t87 -246.5v-768h-82v758q0 139 -71.5 204.5t-194.5 65.5q-221 0 -338 -188v-840h-82v1638h82zM41 1720h-92l205 226h61l205 -226h-92l-144 158z" />
    <glyph glyph-name="Hbar" unicode="&#x126;" horiz-adv-x="1290" 
d="M1044 1597h82v-1597h-82v776h-798v-776h-82v1597h82v-329h798v329zM246 854h798v336h-798v-336z" />
    <glyph glyph-name="hbar" unicode="&#x127;" horiz-adv-x="1044" 
d="M225 1638v-237h287v-78h-287v-381q50 73 140.5 118.5t218.5 45.5q153 0 240 -91.5t87 -246.5v-768h-82v758q0 139 -71.5 204.5t-194.5 65.5q-221 0 -338 -188v-840h-82v1323h-204v78h204v237h82z" />
    <glyph glyph-name="Itilde" unicode="&#x128;" horiz-adv-x="430" 
d="M256 1597v-1597h-82v1597h82zM428 1909h74q0 -85 -40 -128.5t-108 -43.5q-40 0 -81 19.5t-69 43t-61.5 43t-60.5 19.5q-80 0 -80 -105h-74q0 85 40 128.5t108 43.5q40 0 81 -19.5t69 -43t61.5 -43t60.5 -19.5q80 0 80 105z" />
    <glyph glyph-name="itilde" unicode="&#x129;" horiz-adv-x="409" 
d="M164 0v1085h82v-1085h-82zM420 1509h72q0 -86 -38 -129t-106 -43q-40 0 -82 19t-71.5 42.5t-65 42.5t-63.5 19q-76 0 -76 -102h-72q0 86 37.5 129t105.5 43q40 0 82 -19t72 -42.5t65.5 -42.5t63.5 -19q76 0 76 102z" />
    <glyph glyph-name="Imacron" unicode="&#x12a;" horiz-adv-x="430" 
d="M256 1597v-1597h-82v1597h82zM10 1792v82h410v-82h-410z" />
    <glyph glyph-name="imacron" unicode="&#x12b;" horiz-adv-x="409" 
d="M164 0v1085h82v-1085h-82zM-10 1393v82h430v-82h-430z" />
    <glyph glyph-name="Ibreve" unicode="&#x12c;" horiz-adv-x="430" 
d="M256 1597v-1597h-82v1597h82zM215 1700q-126 0 -198 68t-72 178h73q0 -80 50.5 -129.5t146.5 -49.5t146.5 49.5t50.5 129.5h73q0 -110 -72 -178t-198 -68z" />
    <glyph glyph-name="ibreve" unicode="&#x12d;" horiz-adv-x="409" 
d="M164 0v1085h82v-1085h-82zM205 1249q-156 0 -233.5 93.5t-77.5 254.5h73q0 -129 57 -204.5t181 -75.5t180.5 75.5t56.5 204.5h74q0 -161 -77.5 -254.5t-233.5 -93.5z" />
    <glyph glyph-name="Iogonek" unicode="&#x12e;" horiz-adv-x="430" 
d="M63 -240q0 -58 41 -90t111 -32q71 0 125 28l25 -57q-62 -39 -156 -39q-100 0 -156.5 47.5t-56.5 142.5q0 171 178 267v1570h82v-1597q-193 -88 -193 -240z" />
    <glyph glyph-name="iogonek" unicode="&#x12f;" horiz-adv-x="409" 
d="M53 -240q0 -58 41 -90t111 -32q71 0 125 28l24 -57q-62 -39 -155 -39q-100 0 -156.5 47.5t-56.5 142.5q0 171 178 267v1058h82v-1085q-193 -88 -193 -240zM266 1505v-123h-123v123h123z" />
    <glyph glyph-name="Idotaccent" unicode="&#x130;" horiz-adv-x="430" 
d="M256 1597v-1597h-82v1597h82zM276 1894v-122h-122v122h122z" />
    <glyph glyph-name="dotlessi" unicode="&#x131;" horiz-adv-x="409" 
d="M164 0v1085h82v-1085h-82z" />
    <glyph glyph-name="IJ" unicode="&#x132;" horiz-adv-x="942" 
d="M707 307v1290h81v-1300q0 -161 -72 -239t-194 -78q-101 0 -143 24v76q53 -23 123 -23q109 0 157 57t48 193zM256 1597v-1597h-82v1597h82z" />
    <glyph glyph-name="ij" unicode="&#x133;" horiz-adv-x="716" 
d="M471 -123v1208h82v-1218q0 -153 -77.5 -225t-209.5 -72q-96 0 -143 20v76q41 -18 123 -18q119 0 172 48.5t53 180.5zM164 0v1085h82v-1085h-82zM266 1505v-123h-123v123h123zM573 1505v-123h-122v123h122z" />
    <glyph glyph-name="Jcircumflex" unicode="&#x134;" horiz-adv-x="983" 
d="M748 1597h81v-1105q0 -251 -89.5 -381.5t-295.5 -130.5q-207 0 -294 128.5t-87 383.5v20h78q0 -239 71 -347t232 -108t232.5 108t71.5 347v1085zM645 1720h-92l205 226h61l205 -226h-92l-144 158z" />
    <glyph glyph-name="jcircumflex" unicode="&#x135;" horiz-adv-x="409" 
d="M164 -123v1208h82v-1218q0 -153 -77.5 -225t-209.5 -72q-96 0 -143 20v76q40 -18 123 -18q119 0 172 48.5t53 180.5zM0 1270h-92l266 327h62l266 -327h-92l-205 254z" />
    <glyph glyph-name="Kcommaaccent" unicode="&#x136;" horiz-adv-x="1105" 
d="M246 1597v-968l678 968h100l-487 -684l487 -913h-96l-443 840l-239 -338v-502h-82v1597h82zM604 -123v-98q0 -95 -49.5 -152t-134.5 -57v61q52 0 85.5 30.5t37.5 92.5h-62v123h123z" />
    <glyph glyph-name="kcommaaccent" unicode="&#x137;" horiz-adv-x="983" 
d="M143 0v1638h82v-1194l590 641h107l-379 -409l379 -676h-93l-344 614l-260 -282v-332h-82zM563 -123v-98q0 -95 -49.5 -152t-134.5 -57v61q52 0 85.5 30.5t37.5 92.5h-62v123h123z" />
    <glyph glyph-name="kgreenlandic" unicode="&#x138;" horiz-adv-x="983" 
d="M143 0v1085h82v-641l590 641h107l-379 -409l379 -676h-93l-344 614l-260 -282v-332h-82z" />
    <glyph glyph-name="Lacute" unicode="&#x139;" horiz-adv-x="983" 
d="M952 0h-788v1597h82v-1519h706v-78zM289 1946h86l-127 -226h-86z" />
    <glyph glyph-name="lacute" unicode="&#x13a;" horiz-adv-x="409" 
d="M164 0v1638h82v-1638h-82zM289 1946h86l-127 -226h-86z" />
    <glyph glyph-name="Lcommaaccent" unicode="&#x13b;" horiz-adv-x="983" 
d="M952 0h-788v1597h82v-1519h706v-78zM625 -123v-98q0 -95 -50 -152t-135 -57v61q52 0 85.5 30.5t37.5 92.5h-61v123h123z" />
    <glyph glyph-name="lcommaaccent" unicode="&#x13c;" horiz-adv-x="409" 
d="M164 0v1638h82v-1638h-82zM266 -123v-98q0 -95 -49.5 -152t-134.5 -57v61q52 0 85.5 30.5t37.5 92.5h-62v123h123z" />
    <glyph glyph-name="Lcaron" unicode="&#x13d;" horiz-adv-x="983" 
d="M952 0h-788v1597h82v-1519h706v-78zM569 1638h93l-31 -368h-62v368z" />
    <glyph glyph-name="lcaron" unicode="&#x13e;" horiz-adv-x="409" 
d="M164 0v1638h82v-1638h-82zM410 1638h92l-31 -368h-61v368z" />
    <glyph glyph-name="Ldot" unicode="&#x13f;" horiz-adv-x="983" 
d="M952 0h-788v1597h82v-1519h706v-78zM741 877v-123h-123v123h123z" />
    <glyph glyph-name="ldot" unicode="&#x140;" 
d="M164 0v1638h82v-1638h-82zM573 778v-123h-122v123h122z" />
    <glyph glyph-name="Lslash" unicode="&#x141;" horiz-adv-x="1105" 
d="M41 600v86l246 129v782h82v-739l471 248v-86l-471 -248v-694h706v-78h-788v729z" />
    <glyph glyph-name="lslash" unicode="&#x142;" horiz-adv-x="634" 
d="M72 588v98l194 160v792h82v-725l236 193v-98l-236 -193v-815h-82v748z" />
    <glyph glyph-name="Nacute" unicode="&#x143;" horiz-adv-x="1331" 
d="M1167 1597v-1597h-92l-839 1475l6 -390v-1085h-78v1597h92l840 -1474l-6 389v1085h77zM750 1946h86l-127 -226h-86z" />
    <glyph glyph-name="nacute" unicode="&#x144;" horiz-adv-x="1044" 
d="M911 0h-82v758q0 139 -71.5 204.5t-194.5 65.5q-221 0 -338 -188v-840h-82v778l-10 307h62l18 -159q50 79 142.5 129.5t228.5 50.5q153 0 240 -91.5t87 -246.5v-768zM670 1597h86l-185 -327h-86z" />
    <glyph glyph-name="Ncommaaccent" unicode="&#x145;" horiz-adv-x="1331" 
d="M1167 1597v-1597h-92l-839 1475l6 -390v-1085h-78v1597h92l840 -1474l-6 389v1085h77zM727 -123v-98q0 -95 -49.5 -152t-134.5 -57v61q52 0 85.5 30.5t37.5 92.5h-62v123h123z" />
    <glyph glyph-name="ncommaaccent" unicode="&#x146;" horiz-adv-x="1044" 
d="M911 0h-82v758q0 139 -71.5 204.5t-194.5 65.5q-221 0 -338 -188v-840h-82v778l-10 307h62l18 -159q50 79 142.5 129.5t228.5 50.5q153 0 240 -91.5t87 -246.5v-768zM590 -123v-98q0 -95 -49.5 -152t-134.5 -57v61q52 0 85 30.5t37 92.5h-61v123h123z" />
    <glyph glyph-name="Ncaron" unicode="&#x147;" horiz-adv-x="1331" 
d="M1167 1597v-1597h-92l-839 1475l6 -390v-1085h-78v1597h92l840 -1474l-6 389v1085h77zM430 1946h92l144 -158l143 158h92l-205 -226h-61z" />
    <glyph glyph-name="ncaron" unicode="&#x148;" horiz-adv-x="1044" 
d="M911 0h-82v758q0 139 -71.5 204.5t-194.5 65.5q-221 0 -338 -188v-840h-82v778l-10 307h62l18 -159q50 79 142.5 129.5t228.5 50.5q153 0 240 -91.5t87 -246.5v-768zM231 1597h93l204 -254l205 254h92l-266 -327h-61z" />
    <glyph glyph-name="Eng" unicode="&#x14a;" horiz-adv-x="1331" 
d="M1085 -123v105l-849 1493l6 -390v-1085h-78v1597h92l840 -1474l-6 389v1085h77v-1730q0 -153 -77.5 -225t-208.5 -72q-97 0 -144 20v76q41 -18 123 -18q119 0 172 48.5t53 180.5z" />
    <glyph glyph-name="eng" unicode="&#x14b;" horiz-adv-x="1044" 
d="M829 -123v881q0 139 -71.5 204.5t-194.5 65.5q-221 0 -338 -188v-840h-82v778l-10 307h62l18 -159q50 79 142.5 129.5t228.5 50.5q153 0 240 -91.5t87 -246.5v-901q0 -153 -77.5 -225t-208.5 -72q-97 0 -144 20v76q41 -18 123 -18q119 0 172 48.5t53 180.5z" />
    <glyph glyph-name="Omacron" unicode="&#x14c;" horiz-adv-x="1310" 
d="M655 -20q-266 0 -396 185t-130 593v82q0 408 130 593t396 185t396.5 -185.5t130.5 -592.5v-82q0 -407 -130.5 -592.5t-396.5 -185.5zM649 57h13q222 0 328 165.5t106 535.5v82q0 370 -106 535t-328 165h-13q-222 0 -328 -165t-106 -535v-82q0 -370 106 -535.5t328 -165.5
zM451 1792v82h409v-82h-409z" />
    <glyph glyph-name="omacron" unicode="&#x14d;" horiz-adv-x="1105" 
d="M553 -20q-112 0 -198.5 42.5t-138 117.5t-77.5 171.5t-26 210.5v41q0 91 16 170.5t50.5 148.5t85 118.5t124.5 77.5t164 28t164 -28t124.5 -77.5t85 -118.5t50.5 -148.5t16 -170.5v-41q0 -114 -26 -210.5t-77.5 -171.5t-138 -117.5t-198.5 -42.5zM553 57q177 0 265.5 125
t88.5 340v41q0 215 -88.5 340t-265.5 125t-265.5 -125t-88.5 -340v-41q0 -215 88.5 -340t265.5 -125zM338 1393v82h430v-82h-430z" />
    <glyph glyph-name="Obreve" unicode="&#x14e;" horiz-adv-x="1310" 
d="M655 -20q-266 0 -396 185t-130 593v82q0 408 130 593t396 185t396.5 -185.5t130.5 -592.5v-82q0 -407 -130.5 -592.5t-396.5 -185.5zM649 57h13q222 0 328 165.5t106 535.5v82q0 370 -106 535t-328 165h-13q-222 0 -328 -165t-106 -535v-82q0 -370 106 -535.5t328 -165.5
zM655 1700q-126 0 -198 68t-72 178h74q0 -80 50 -129.5t146 -49.5t146.5 49.5t50.5 129.5h74q0 -110 -72.5 -178t-198.5 -68z" />
    <glyph glyph-name="obreve" unicode="&#x14f;" horiz-adv-x="1105" 
d="M553 -20q-112 0 -198.5 42.5t-138 117.5t-77.5 171.5t-26 210.5v41q0 91 16 170.5t50.5 148.5t85 118.5t124.5 77.5t164 28t164 -28t124.5 -77.5t85 -118.5t50.5 -148.5t16 -170.5v-41q0 -114 -26 -210.5t-77.5 -171.5t-138 -117.5t-198.5 -42.5zM553 57q177 0 265.5 125
t88.5 340v41q0 215 -88.5 340t-265.5 125t-265.5 -125t-88.5 -340v-41q0 -215 88.5 -340t265.5 -125zM553 1249q-156 0 -233.5 93.5t-77.5 254.5h73q0 -129 57 -204.5t181 -75.5t181 75.5t57 204.5h73q0 -161 -77.5 -254.5t-233.5 -93.5z" />
    <glyph glyph-name="Ohungarumlaut" unicode="&#x150;" horiz-adv-x="1310" 
d="M655 -20q-266 0 -396 185t-130 593v82q0 408 130 593t396 185t396.5 -185.5t130.5 -592.5v-82q0 -407 -130.5 -592.5t-396.5 -185.5zM649 57h13q222 0 328 165.5t106 535.5v82q0 370 -106 535t-328 165h-13q-222 0 -328 -165t-106 -535v-82q0 -370 106 -535.5t328 -165.5
zM627 1946h86l-127 -226h-86zM852 1946h86l-127 -226h-86z" />
    <glyph glyph-name="ohungarumlaut" unicode="&#x151;" horiz-adv-x="1105" 
d="M553 -20q-112 0 -198.5 42.5t-138 117.5t-77.5 171.5t-26 210.5v41q0 91 16 170.5t50.5 148.5t85 118.5t124.5 77.5t164 28t164 -28t124.5 -77.5t85 -118.5t50.5 -148.5t16 -170.5v-41q0 -114 -26 -210.5t-77.5 -171.5t-138 -117.5t-198.5 -42.5zM553 57q177 0 265.5 125
t88.5 340v41q0 215 -88.5 340t-265.5 125t-265.5 -125t-88.5 -340v-41q0 -215 88.5 -340t265.5 -125zM807 1597h86l-184 -327h-86zM582 1597h86l-185 -327h-86z" />
    <glyph glyph-name="OE" unicode="&#x152;" horiz-adv-x="1925" 
d="M129 840q0 757 598 757h1116v-77h-778v-666h676v-78h-676v-698h778v-78h-1116q-598 0 -598 758v82zM983 78v1442h-246q-98 0 -176.5 -22.5t-144 -72.5t-109.5 -128.5t-68 -193.5t-24 -263v-82q0 -148 24 -263t68 -193.5t109.5 -128.5t144 -72.5t176.5 -22.5h246z" />
    <glyph glyph-name="oe" unicode="&#x153;" horiz-adv-x="1900" 
d="M1788 504h-795q3 -209 93 -328t272 -119q90 0 160 26.5t109.5 69.5t59 92.5t19.5 102.5h82v-8q0 -61 -25.5 -122.5t-75 -115.5t-135.5 -88t-194 -34q-162 0 -263.5 80t-144.5 221q-44 -141 -142 -221t-255 -80q-112 0 -198.5 42.5t-138 117.5t-77.5 171.5t-26 210.5v41
q0 91 16 170.5t50.5 148.5t85 118.5t124.5 77.5t164 28q157 0 255 -80.5t142 -220.5q42 139 141.5 220t256.5 81q90 0 164 -28t124.5 -77.5t85 -118.5t50.5 -148.5t16 -170.5v-59zM199 522q0 -215 88.5 -340t265.5 -125t265.5 125t88.5 340v41q0 215 -88.5 340t-265.5 125
t-265.5 -125t-88.5 -340v-41zM1348 1028q-174 0 -263 -119.5t-92 -326.5h709q-5 208 -93 327t-261 119z" />
    <glyph glyph-name="Racute" unicode="&#x154;" horiz-adv-x="1167" 
d="M246 676v-676h-82v1597h414q70 0 132.5 -12t125 -43t107.5 -79.5t73 -126.5t28 -179v-41q0 -329 -284 -416l284 -700h-92l-270 684q-47 -8 -104 -8h-332zM246 754h332q36 0 70.5 4t73 14.5t71.5 28t64 46t53 65.5t35 90.5t13 117.5v33q0 89 -25 156.5t-63 106.5t-91 63.5
t-101 32.5t-100 8h-332v-766zM627 1946h86l-127 -226h-86z" />
    <glyph glyph-name="racute" unicode="&#x155;" horiz-adv-x="645" 
d="M522 1106l31 -2v-76h-21q-62 0 -113 -16.5t-88 -47.5t-60 -59t-46 -65v-840h-82v778l-10 307h62l18 -153q46 77 123.5 125.5t185.5 48.5zM489 1597h86l-184 -327h-86z" />
    <glyph glyph-name="Rcommaaccent" unicode="&#x156;" horiz-adv-x="1167" 
d="M246 676v-676h-82v1597h414q70 0 132.5 -12t125 -43t107.5 -79.5t73 -126.5t28 -179v-41q0 -329 -284 -416l284 -700h-92l-270 684q-47 -8 -104 -8h-332zM246 754h332q36 0 70.5 4t73 14.5t71.5 28t64 46t53 65.5t35 90.5t13 117.5v33q0 89 -25 156.5t-63 106.5t-91 63.5
t-101 32.5t-100 8h-332v-766zM625 -123v-98q0 -95 -50 -152t-135 -57v61q52 0 85.5 30.5t37.5 92.5h-61v123h123z" />
    <glyph glyph-name="rcommaaccent" unicode="&#x157;" horiz-adv-x="645" 
d="M522 1106l31 -2v-76h-21q-62 0 -113 -16.5t-88 -47.5t-60 -59t-46 -65v-840h-82v778l-10 307h62l18 -153q46 77 123.5 125.5t185.5 48.5zM246 -123v-98q0 -95 -50 -152t-135 -57v61q52 0 85.5 30.5t37.5 92.5h-61v123h123z" />
    <glyph glyph-name="Rcaron" unicode="&#x158;" horiz-adv-x="1167" 
d="M246 676v-676h-82v1597h414q70 0 132.5 -12t125 -43t107.5 -79.5t73 -126.5t28 -179v-41q0 -329 -284 -416l284 -700h-92l-270 684q-47 -8 -104 -8h-332zM246 754h332q36 0 70.5 4t73 14.5t71.5 28t64 46t53 65.5t35 90.5t13 117.5v33q0 89 -25 156.5t-63 106.5t-91 63.5
t-101 32.5t-100 8h-332v-766zM307 1946h92l144 -158l143 158h92l-205 -226h-61z" />
    <glyph glyph-name="rcaron" unicode="&#x159;" horiz-adv-x="645" 
d="M522 1106l31 -2v-76h-21q-62 0 -113 -16.5t-88 -47.5t-60 -59t-46 -65v-840h-82v778l-10 307h62l18 -153q46 77 123.5 125.5t185.5 48.5zM51 1597h92l205 -254l205 254h92l-266 -327h-62z" />
    <glyph glyph-name="Sacute" unicode="&#x15a;" horiz-adv-x="1208" 
d="M588 788q-126 17 -218.5 56t-145 94t-77 117t-24.5 133v20q0 189 133.5 299.5t347.5 110.5q481 0 481 -502v-51h-81q0 250 -94.5 362.5t-299.5 112.5h-12q-168 0 -278.5 -84t-110.5 -227v-21q0 -147 95.5 -231t322.5 -115q252 -34 365.5 -141t113.5 -283v-20
q0 -203 -137.5 -320.5t-364.5 -117.5q-241 0 -371.5 137.5t-130.5 374.5v20h82q0 -223 113.5 -339t300.5 -116h12q184 0 297 93t113 258v20q0 160 -103.5 244.5t-328.5 115.5zM688 1946h86l-127 -226h-86z" />
    <glyph glyph-name="sacute" unicode="&#x15b;" horiz-adv-x="1064" 
d="M532 57q149 0 231.5 61.5t82.5 168.5q0 65 -19 106.5t-64.5 67t-104.5 37.5t-156 20q-105 10 -176.5 34.5t-110 63.5t-54.5 83.5t-16 103.5v10q0 129 101.5 211t285.5 82q105 0 182 -27t121.5 -77t65.5 -113.5t21 -143.5v-8h-82q0 143 -69 217t-239 74q-142 0 -221.5 -57
t-79.5 -162q0 -69 25.5 -111t99.5 -71.5t207 -40.5q201 -15 285 -83.5t84 -211.5v-8q0 -134 -107 -218.5t-293 -84.5q-88 0 -158.5 21t-114.5 55t-73 79t-41 90.5t-12 93.5v9h82q0 -55 15 -100t48.5 -85.5t98 -63t155.5 -22.5zM674 1597h86l-185 -327h-86z" />
    <glyph glyph-name="Scircumflex" unicode="&#x15c;" horiz-adv-x="1208" 
d="M588 788q-126 17 -218.5 56t-145 94t-77 117t-24.5 133v20q0 189 133.5 299.5t347.5 110.5q481 0 481 -502v-51h-81q0 250 -94.5 362.5t-299.5 112.5h-12q-168 0 -278.5 -84t-110.5 -227v-21q0 -147 95.5 -231t322.5 -115q252 -34 365.5 -141t113.5 -283v-20
q0 -203 -137.5 -320.5t-364.5 -117.5q-241 0 -371.5 137.5t-130.5 374.5v20h82q0 -223 113.5 -339t300.5 -116h12q184 0 297 93t113 258v20q0 160 -103.5 244.5t-328.5 115.5zM461 1720h-92l204 226h62l205 -226h-92l-144 158z" />
    <glyph glyph-name="scircumflex" unicode="&#x15d;" horiz-adv-x="1064" 
d="M532 57q149 0 231.5 61.5t82.5 168.5q0 65 -19 106.5t-64.5 67t-104.5 37.5t-156 20q-105 10 -176.5 34.5t-110 63.5t-54.5 83.5t-16 103.5v10q0 129 101.5 211t285.5 82q105 0 182 -27t121.5 -77t65.5 -113.5t21 -143.5v-8h-82q0 143 -69 217t-239 74q-142 0 -221.5 -57
t-79.5 -162q0 -69 25.5 -111t99.5 -71.5t207 -40.5q201 -15 285 -83.5t84 -211.5v-8q0 -134 -107 -218.5t-293 -84.5q-88 0 -158.5 21t-114.5 55t-73 79t-41 90.5t-12 93.5v9h82q0 -55 15 -100t48.5 -85.5t98 -63t155.5 -22.5zM328 1270h-92l266 327h61l266 -327h-92
l-205 254z" />
    <glyph glyph-name="Scedilla" unicode="&#x15e;" horiz-adv-x="1208" 
d="M418 -385l26 61q58 -38 144 -38q73 0 107 18.5t34 64.5q0 80 -133 80l-53 -4l-35 33l55 152q-221 10 -341 146t-120 364v20h82q0 -223 113.5 -339t300.5 -116h12q184 0 297 93t113 258v20q0 160 -103.5 244.5t-328.5 115.5q-126 17 -218.5 56t-145 94t-77 117t-24.5 133
v20q0 189 133.5 299.5t347.5 110.5q481 0 481 -502v-51h-81q0 250 -94.5 362.5t-299.5 112.5h-12q-168 0 -278.5 -84t-110.5 -227v-21q0 -147 95.5 -231t322.5 -115q252 -34 365.5 -141t113.5 -283v-20q0 -195 -127.5 -311t-341.5 -125l-41 -113h10q35 0 66.5 -7t60.5 -22.5
t46.5 -45.5t17.5 -70q0 -80 -54 -117t-145 -37q-116 0 -180 45z" />
    <glyph glyph-name="scedilla" unicode="&#x15f;" horiz-adv-x="1064" 
d="M346 -385l27 61q58 -38 143 -38q73 0 107 18.5t34 64.5q0 80 -133 80l-53 -4l-35 33l56 152q-97 6 -170 39t-112.5 83t-58 104t-18.5 111v9h82q0 -55 15 -100t48.5 -85.5t98 -63t155.5 -22.5q149 0 231.5 61.5t82.5 168.5q0 65 -19 106.5t-64.5 67t-104.5 37.5t-156 20
q-105 10 -176.5 34.5t-110 63.5t-54.5 83.5t-16 103.5v10q0 129 101.5 211t285.5 82q105 0 182 -27t121.5 -77t65.5 -113.5t21 -143.5v-8h-82q0 143 -69 217t-239 74q-142 0 -221.5 -57t-79.5 -162q0 -69 25.5 -111t99.5 -71.5t207 -40.5q201 -15 285 -83.5t84 -211.5v-8
q0 -127 -98 -210.5t-269 -90.5l-41 -113h11q35 0 66.5 -7t60.5 -22.5t46 -45.5t17 -70q0 -80 -54 -117t-145 -37q-116 0 -180 45z" />
    <glyph glyph-name="Scaron" unicode="&#x160;" horiz-adv-x="1208" 
d="M588 788q-126 17 -218.5 56t-145 94t-77 117t-24.5 133v20q0 189 133.5 299.5t347.5 110.5q481 0 481 -502v-51h-81q0 250 -94.5 362.5t-299.5 112.5h-12q-168 0 -278.5 -84t-110.5 -227v-21q0 -147 95.5 -231t322.5 -115q252 -34 365.5 -141t113.5 -283v-20
q0 -203 -137.5 -320.5t-364.5 -117.5q-241 0 -371.5 137.5t-130.5 374.5v20h82q0 -223 113.5 -339t300.5 -116h12q184 0 297 93t113 258v20q0 160 -103.5 244.5t-328.5 115.5zM369 1946h92l143 -158l144 158h92l-205 -226h-62z" />
    <glyph glyph-name="scaron" unicode="&#x161;" horiz-adv-x="1064" 
d="M532 57q149 0 231.5 61.5t82.5 168.5q0 65 -19 106.5t-64.5 67t-104.5 37.5t-156 20q-105 10 -176.5 34.5t-110 63.5t-54.5 83.5t-16 103.5v10q0 129 101.5 211t285.5 82q105 0 182 -27t121.5 -77t65.5 -113.5t21 -143.5v-8h-82q0 143 -69 217t-239 74q-142 0 -221.5 -57
t-79.5 -162q0 -69 25.5 -111t99.5 -71.5t207 -40.5q201 -15 285 -83.5t84 -211.5v-8q0 -134 -107 -218.5t-293 -84.5q-88 0 -158.5 21t-114.5 55t-73 79t-41 90.5t-12 93.5v9h82q0 -55 15 -100t48.5 -85.5t98 -63t155.5 -22.5zM236 1597h92l204 -254l205 254h92l-266 -327
h-61z" />
    <glyph glyph-name="Tcommaaccent" unicode="&#x162;" horiz-adv-x="1024" 
d="M553 1520v-1520h-82v1520h-420v77h922v-77h-420zM573 -123v-98q0 -95 -49.5 -152t-134.5 -57v61q52 0 85.5 30.5t37.5 92.5h-61v123h122z" />
    <glyph glyph-name="tcommaaccent" unicode="&#x163;" horiz-adv-x="798" 
d="M328 1085h368v-77h-368v-721q0 -132 53 -181t172 -49q80 0 123 19v-76q-47 -20 -144 -20q-132 0 -209 71.5t-77 224.5v732h-174v77h174v308h82v-308zM532 -123v-98q0 -95 -49.5 -152t-134.5 -57v61q52 0 85.5 30.5t37.5 92.5h-61v123h122z" />
    <glyph glyph-name="Tcaron" unicode="&#x164;" horiz-adv-x="1024" 
d="M553 1520v-1520h-82v1520h-420v77h922v-77h-420zM276 1946h93l143 -158l143 158h93l-205 -226h-62z" />
    <glyph glyph-name="tcaron" unicode="&#x165;" horiz-adv-x="798" 
d="M328 1085h368v-77h-368v-721q0 -132 53 -181t172 -49q80 0 123 19v-76q-47 -20 -144 -20q-132 0 -209 71.5t-77 224.5v732h-174v77h174v308h82v-308zM492 1638h92l-31 -368h-61v368z" />
    <glyph glyph-name="Tbar" unicode="&#x166;" horiz-adv-x="1024" 
d="M553 1520v-666h266v-78h-266v-776h-82v776h-266v78h266v666h-420v77h922v-77h-420z" />
    <glyph glyph-name="tbar" unicode="&#x167;" horiz-adv-x="798" 
d="M328 1085h368v-77h-368v-426h286v-78h-286v-217q0 -132 53 -181t172 -49q80 0 123 19v-76q-47 -20 -144 -20q-132 0 -209 71.5t-77 224.5v228h-174v78h174v426h-174v77h174v308h82v-308z" />
    <glyph glyph-name="Utilde" unicode="&#x168;" horiz-adv-x="1290" 
d="M645 -20q-120 0 -207 24.5t-153 82t-98.5 158.5t-32.5 247v1105h82v-1095q0 -129 25.5 -216.5t80 -137.5t127 -70.5t176.5 -20.5t177 20.5t127 70.5t80 137.5t26 216.5v1095h82v-1105q0 -146 -33 -247t-99 -158.5t-153 -82t-207 -24.5zM858 1909h74q0 -85 -40 -128.5
t-108 -43.5q-40 0 -81 19.5t-69 43t-61.5 43t-60.5 19.5q-80 0 -80 -105h-74q0 85 40 128.5t108 43.5q40 0 81 -19.5t69 -43t61.5 -43t60.5 -19.5q80 0 80 105z" />
    <glyph glyph-name="utilde" unicode="&#x169;" horiz-adv-x="1044" 
d="M133 1085h82v-757q0 -140 71.5 -205.5t194.5 -65.5q220 0 338 189v839h82v-778l10 -307h-61l-21 158q-49 -79 -141 -128.5t-227 -49.5q-153 0 -240.5 91t-87.5 246v768zM731 1509h72q0 -86 -38 -129t-106 -43q-40 0 -82 19t-71.5 42.5t-65 42.5t-63.5 19q-76 0 -76 -102
h-72q0 86 38 129t106 43q40 0 82 -19t71.5 -42.5t65 -42.5t63.5 -19q76 0 76 102z" />
    <glyph glyph-name="Umacron" unicode="&#x16a;" horiz-adv-x="1290" 
d="M645 -20q-120 0 -207 24.5t-153 82t-98.5 158.5t-32.5 247v1105h82v-1095q0 -129 25.5 -216.5t80 -137.5t127 -70.5t176.5 -20.5t177 20.5t127 70.5t80 137.5t26 216.5v1095h82v-1105q0 -146 -33 -247t-99 -158.5t-153 -82t-207 -24.5zM440 1792v82h410v-82h-410z" />
    <glyph glyph-name="umacron" unicode="&#x16b;" horiz-adv-x="1044" 
d="M133 1085h82v-757q0 -140 71.5 -205.5t194.5 -65.5q220 0 338 189v839h82v-778l10 -307h-61l-21 158q-49 -79 -141 -128.5t-227 -49.5q-153 0 -240.5 91t-87.5 246v768zM301 1393v82h430v-82h-430z" />
    <glyph glyph-name="Ubreve" unicode="&#x16c;" horiz-adv-x="1290" 
d="M645 -20q-120 0 -207 24.5t-153 82t-98.5 158.5t-32.5 247v1105h82v-1095q0 -129 25.5 -216.5t80 -137.5t127 -70.5t176.5 -20.5t177 20.5t127 70.5t80 137.5t26 216.5v1095h82v-1105q0 -146 -33 -247t-99 -158.5t-153 -82t-207 -24.5zM645 1700q-126 0 -198 68t-72 178
h74q0 -80 50 -129.5t146 -49.5t146.5 49.5t50.5 129.5h73q0 -110 -72 -178t-198 -68z" />
    <glyph glyph-name="ubreve" unicode="&#x16d;" horiz-adv-x="1044" 
d="M133 1085h82v-757q0 -140 71.5 -205.5t194.5 -65.5q220 0 338 189v839h82v-778l10 -307h-61l-21 158q-49 -79 -141 -128.5t-227 -49.5q-153 0 -240.5 91t-87.5 246v768zM516 1249q-156 0 -233.5 93.5t-77.5 254.5h74q0 -129 56.5 -204.5t180.5 -75.5t181 75.5t57 204.5
h73q0 -161 -77.5 -254.5t-233.5 -93.5z" />
    <glyph glyph-name="Uring" unicode="&#x16e;" horiz-adv-x="1290" 
d="M645 -20q-120 0 -207 24.5t-153 82t-98.5 158.5t-32.5 247v1105h82v-1095q0 -129 25.5 -216.5t80 -137.5t127 -70.5t176.5 -20.5t177 20.5t127 70.5t80 137.5t26 216.5v1095h82v-1105q0 -146 -33 -247t-99 -158.5t-153 -82t-207 -24.5zM461 1782q0 76 53.5 130t130.5 54
t130.5 -54t53.5 -130q0 -77 -54 -131t-130 -54t-130 54t-54 131zM526 1782q0 -50 35 -84.5t84 -34.5t84 34.5t35 84.5t-35 84.5t-84 34.5t-84 -34.5t-35 -84.5z" />
    <glyph glyph-name="uring" unicode="&#x16f;" horiz-adv-x="1044" 
d="M133 1085h82v-757q0 -140 71.5 -205.5t194.5 -65.5q220 0 338 189v839h82v-778l10 -307h-61l-21 158q-49 -79 -141 -128.5t-227 -49.5q-153 0 -240.5 91t-87.5 246v768zM332 1434q0 76 54 130t130 54t130 -54t54 -130q0 -77 -54 -131t-130 -54t-130 54t-54 131zM397 1434
q0 -50 34.5 -84.5t84.5 -34.5t84.5 34.5t34.5 84.5q0 49 -34.5 83.5t-84.5 34.5t-84.5 -34.5t-34.5 -83.5z" />
    <glyph glyph-name="Uhungarumlaut" unicode="&#x170;" horiz-adv-x="1290" 
d="M645 -20q-120 0 -207 24.5t-153 82t-98.5 158.5t-32.5 247v1105h82v-1095q0 -129 25.5 -216.5t80 -137.5t127 -70.5t176.5 -20.5t177 20.5t127 70.5t80 137.5t26 216.5v1095h82v-1105q0 -146 -33 -247t-99 -158.5t-153 -82t-207 -24.5zM842 1946h86l-127 -226h-86z
M616 1946h86l-127 -226h-86z" />
    <glyph glyph-name="uhungarumlaut" unicode="&#x171;" horiz-adv-x="1044" 
d="M133 1085h82v-757q0 -140 71.5 -205.5t194.5 -65.5q220 0 338 189v839h82v-778l10 -307h-61l-21 158q-49 -79 -141 -128.5t-227 -49.5q-153 0 -240.5 91t-87.5 246v768zM545 1597h86l-185 -327h-86zM770 1597h86l-184 -327h-86z" />
    <glyph glyph-name="Uogonek" unicode="&#x172;" horiz-adv-x="1290" 
d="M645 -240q0 -58 41 -90t111 -32q71 0 125 28l24 -57q-62 -39 -155 -39q-100 0 -156.5 47.5t-56.5 142.5q0 131 108 222q-12 -2 -41 -2q-120 0 -207 24.5t-153 82t-98.5 158.5t-32.5 247v1105h82v-1095q0 -129 25.5 -216.5t80 -137.5t127 -70.5t176.5 -20.5t177 20.5
t127 70.5t80 137.5t26 216.5v1095h82v-1105q0 -223 -74 -337.5t-225 -154.5q-76 -21 -134.5 -86t-58.5 -154z" />
    <glyph glyph-name="uogonek" unicode="&#x173;" horiz-adv-x="1044" 
d="M719 -240q0 -58 40.5 -90t110.5 -32q71 0 125 28l25 -57q-62 -39 -156 -39q-100 0 -156.5 47.5t-56.5 142.5q0 176 195 275l-17 123q-49 -79 -141 -128.5t-227 -49.5q-153 0 -240.5 91t-87.5 246v768h82v-757q0 -140 71.5 -205.5t194.5 -65.5q220 0 338 189v839h82v-778
l10 -307q-192 -88 -192 -240z" />
    <glyph glyph-name="Wcircumflex" unicode="&#x174;" horiz-adv-x="1802" 
d="M1270 -20l-369 1536l-369 -1536h-122l-310 1617h88l283 -1531l369 1531h123l368 -1531l283 1531h88l-309 -1617h-123zM758 1720h-92l204 226h62l205 -226h-93l-143 158z" />
    <glyph glyph-name="wcircumflex" unicode="&#x175;" horiz-adv-x="1433" 
d="M717 985l-281 -985h-114l-250 1085h84l225 -1003l285 1003h102l285 -1003l225 1003h84l-250 -1085h-115zM512 1270h-92l266 327h62l266 -327h-92l-205 254z" />
    <glyph glyph-name="Ycircumflex" unicode="&#x176;" horiz-adv-x="1146" 
d="M614 481v-481h-82v481l-481 1116h88l434 -1013l435 1013h88zM430 1720h-92l205 226h61l205 -226h-92l-144 158z" />
    <glyph glyph-name="ycircumflex" unicode="&#x177;" horiz-adv-x="946" 
d="M492 133l346 952h86l-392 -1048l-159 -447h-90l168 447l-392 1048h86zM287 1270h-92l266 327h61l266 -327h-92l-204 254z" />
    <glyph glyph-name="Ydieresis" unicode="&#x178;" horiz-adv-x="1146" 
d="M614 481v-481h-82v481l-481 1116h88l434 -1013l435 1013h88zM788 1894v-122h-122v122h122zM481 1894v-122h-123v122h123z" />
    <glyph glyph-name="Zacute" unicode="&#x179;" horiz-adv-x="1126" 
d="M641 1946h86l-127 -226h-86zM82 57l840 1467l-246 -4h-574v77h922v-57l-840 -1466l246 4h614v-78h-962v57z" />
    <glyph glyph-name="zacute" unicode="&#x17a;" horiz-adv-x="913" 
d="M594 1597h86l-184 -327h-86zM78 57l637 953l-248 -2h-369v77h717v-57l-637 -952l248 2h410v-78h-758v57z" />
    <glyph glyph-name="Zdotaccent" unicode="&#x17b;" horiz-adv-x="1126" 
d="M618 1894v-122h-122v122h122zM82 57l840 1467l-246 -4h-574v77h922v-57l-840 -1466l246 4h614v-78h-962v57z" />
    <glyph glyph-name="zdotaccent" unicode="&#x17c;" horiz-adv-x="913" 
d="M514 1505v-123h-123v123h123zM78 57l637 953l-248 -2h-369v77h717v-57l-637 -952l248 2h410v-78h-758v57z" />
    <glyph glyph-name="Zcaron" unicode="&#x17d;" horiz-adv-x="1126" 
d="M322 1946h92l143 -158l143 158h93l-205 -226h-62zM82 57l840 1467l-246 -4h-574v77h922v-57l-840 -1466l246 4h614v-78h-962v57z" />
    <glyph glyph-name="zcaron" unicode="&#x17e;" horiz-adv-x="913" 
d="M156 1597h92l205 -254l204 254h93l-267 -327h-61zM78 57l637 953l-248 -2h-369v77h717v-57l-637 -952l248 2h410v-78h-758v57z" />
    <glyph glyph-name="Scommaaccent" unicode="&#x218;" horiz-adv-x="1208" 
d="M588 788q-126 17 -218.5 56t-145 94t-77 117t-24.5 133v20q0 189 133.5 299.5t347.5 110.5q481 0 481 -502v-51h-81q0 250 -94.5 362.5t-299.5 112.5h-12q-168 0 -278.5 -84t-110.5 -227v-21q0 -147 95.5 -231t322.5 -115q252 -34 365.5 -141t113.5 -283v-20
q0 -203 -137.5 -320.5t-364.5 -117.5q-241 0 -371.5 137.5t-130.5 374.5v20h82q0 -223 113.5 -339t300.5 -116h12q184 0 297 93t113 258v20q0 160 -103.5 244.5t-328.5 115.5zM666 -123v-98q0 -95 -50 -152t-135 -57v61q52 0 85.5 30.5t37.5 92.5h-61v123h123z" />
    <glyph glyph-name="scommaaccent" unicode="&#x219;" horiz-adv-x="1064" 
d="M532 57q149 0 231.5 61.5t82.5 168.5q0 65 -19 106.5t-64.5 67t-104.5 37.5t-156 20q-105 10 -176.5 34.5t-110 63.5t-54.5 83.5t-16 103.5v10q0 129 101.5 211t285.5 82q105 0 182 -27t121.5 -77t65.5 -113.5t21 -143.5v-8h-82q0 143 -69 217t-239 74q-142 0 -221.5 -57
t-79.5 -162q0 -69 25.5 -111t99.5 -71.5t207 -40.5q201 -15 285 -83.5t84 -211.5v-8q0 -134 -107 -218.5t-293 -84.5q-88 0 -158.5 21t-114.5 55t-73 79t-41 90.5t-12 93.5v9h82q0 -55 15 -100t48.5 -85.5t98 -63t155.5 -22.5zM594 -123v-98q0 -95 -49.5 -152t-134.5 -57v61
q52 0 85 30.5t37 92.5h-61v123h123z" />
    <glyph glyph-name="Ymacron" unicode="&#x232;" horiz-adv-x="1146" 
d="M614 481v-481h-82v481l-481 1116h88l434 -1013l435 1013h88zM369 1792v82h409v-82h-409z" />
    <glyph glyph-name="ymacron" unicode="&#x233;" horiz-adv-x="946" 
d="M492 133l346 952h86l-392 -1048l-159 -447h-90l168 447l-392 1048h86zM276 1393v82h431v-82h-431z" />
    <glyph glyph-name="dotlessj" unicode="&#x237;" horiz-adv-x="409" 
d="M164 -123v1208h82v-1218q0 -153 -77.5 -225t-209.5 -72q-96 0 -143 20v76q40 -18 123 -18q119 0 172 48.5t53 180.5z" />
    <glyph glyph-name="circumflex" unicode="&#x2c6;" horiz-adv-x="1024" 
d="M307 1270h-92l266 327h62l266 -327h-92l-205 254z" />
    <glyph glyph-name="caron" unicode="&#x2c7;" horiz-adv-x="1024" 
d="M215 1597h92l205 -254l205 254h92l-266 -327h-62z" />
    <glyph glyph-name="breve" unicode="&#x2d8;" horiz-adv-x="1024" 
d="M512 1249q-156 0 -233.5 93.5t-77.5 254.5h73q0 -129 57 -204.5t181 -75.5t181 75.5t57 204.5h73q0 -161 -77.5 -254.5t-233.5 -93.5z" />
    <glyph glyph-name="dotaccent" unicode="&#x2d9;" horiz-adv-x="1024" 
d="M573 1505v-123h-122v123h122z" />
    <glyph glyph-name="ring" unicode="&#x2da;" horiz-adv-x="1024" 
d="M328 1434q0 76 54 130t130 54t130 -54t54 -130q0 -77 -54 -131t-130 -54t-130 54t-54 131zM393 1434q0 -50 34.5 -84.5t84.5 -34.5t84.5 34.5t34.5 84.5q0 49 -34.5 83.5t-84.5 34.5t-84.5 -34.5t-34.5 -83.5z" />
    <glyph glyph-name="ogonek" unicode="&#x2db;" horiz-adv-x="1232" 
d="M381 -240q0 -58 40.5 -90t110.5 -32q71 0 125 28l25 -57q-62 -39 -156 -39q-100 0 -156.5 47.5t-56.5 142.5q0 191 234 295l26 -55q-192 -88 -192 -240z" />
    <glyph glyph-name="tilde" unicode="&#x2dc;" horiz-adv-x="1024" 
d="M727 1509h72q0 -86 -38 -129t-106 -43q-40 0 -82 19t-71.5 42.5t-65 42.5t-63.5 19q-76 0 -76 -102h-72q0 86 38 129t106 43q40 0 82 -19t71.5 -42.5t65 -42.5t63.5 -19q76 0 76 102z" />
    <glyph glyph-name="hungarumlaut" unicode="&#x2dd;" horiz-adv-x="1024" 
d="M766 1597h86l-184 -327h-86zM541 1597h86l-185 -327h-86z" />
    <glyph glyph-name="Bdotaccent" unicode="&#x1e02;" horiz-adv-x="1167" 
d="M164 1597h362q214 0 346 -99t132 -288v-41q0 -136 -71 -222.5t-196 -121.5q143 -34 225 -127.5t82 -246.5v-41q0 -197 -132.5 -303.5t-344.5 -106.5h-403v1597zM578 782h-332v-704h332q81 0 149 20t120 60t81.5 105.5t29.5 150.5v32q0 85 -29.5 150.5t-81.5 105.5
t-120 60t-149 20zM537 1520h-291v-660h291q81 0 148.5 18t120.5 55t82.5 98.5t29.5 142.5v32q0 81 -29.5 142.5t-82.5 98.5t-120.5 55t-148.5 18zM604 1894v-122h-123v122h123z" />
    <glyph glyph-name="bdotaccent" unicode="&#x1e03;" horiz-adv-x="1075" 
d="M225 1638v-688q46 70 125 113t193 43q87 0 157.5 -28t119 -77.5t81 -118.5t47.5 -148.5t15 -170.5v-41q0 -114 -24.5 -210.5t-73.5 -171.5t-131.5 -117.5t-190.5 -42.5q-226 0 -330 174l-18 -154h-62l10 307v1331h82zM225 840v-594q118 -189 307 -189q169 0 257 123.5
t88 341.5v41q0 218 -88 341.5t-257 123.5q-190 0 -307 -188zM246 1894v-122h-123v122h123z" />
    <glyph glyph-name="Ddotaccent" unicode="&#x1e0a;" horiz-adv-x="1290" 
d="M1161 758q0 -758 -598 -758h-399v1597h399q598 0 598 -757v-82zM246 78h307q98 0 176.5 22.5t144 72.5t109.5 128.5t68 193.5t24 263v82q0 148 -24 263t-68 193.5t-109.5 128.5t-144 72.5t-176.5 22.5h-307v-1442zM645 1894v-122h-123v122h123z" />
    <glyph glyph-name="ddotaccent" unicode="&#x1e0b;" horiz-adv-x="1075" 
d="M532 1106q212 0 318 -156v688h82v-1331l10 -307h-61l-21 154q-44 -77 -126 -125.5t-202 -48.5q-108 0 -190 42.5t-131 118t-73.5 171t-24.5 210.5v41q0 115 24.5 211t73.5 171.5t131 118t190 42.5zM850 840q-117 188 -307 188q-169 0 -256.5 -123.5t-87.5 -341.5v-41
q0 -218 87.5 -341.5t256.5 -123.5q189 0 307 189v594zM952 1894v-122h-123v122h123z" />
    <glyph glyph-name="Fdotaccent" unicode="&#x1e1e;" horiz-adv-x="1024" 
d="M164 1597h819v-77h-737v-666h635v-78h-635v-776h-82v1597zM676 1894v-122h-123v122h123z" />
    <glyph glyph-name="fdotaccent" unicode="&#x1e1f;" horiz-adv-x="757" 
d="M328 1352v-267h327v-77h-327v-1008h-82v1008h-174v77h174v277q0 153 77.5 225t208.5 72q95 0 144 -21v-75q-41 18 -123 18q-119 0 -172 -48.5t-53 -180.5zM553 1894v-122h-123v122h123z" />
    <glyph glyph-name="Mdotaccent" unicode="&#x1e40;" horiz-adv-x="1597" 
d="M1358 1454l-529 -1454h-61l-528 1454l6 -369v-1085h-82v1597h106l529 -1458l528 1458h107v-1597h-82v1085zM860 1894v-122h-123v122h123z" />
    <glyph glyph-name="mdotaccent" unicode="&#x1e41;" horiz-adv-x="1607" 
d="M1475 0h-82v788q0 136 -62 188t-174 52q-62 0 -113 -16.5t-88 -47.5t-60 -59t-46 -65v-840h-82v788q0 136 -62 188t-174 52q-62 0 -113 -16.5t-88 -47.5t-60 -59t-46 -65v-840h-82v778l-10 307h62l18 -153q48 77 132.5 125.5t207.5 48.5q107 0 179 -46t99 -136
q46 79 133 130.5t214 51.5q141 0 219 -78t78 -229v-799zM870 1505v-123h-122v123h122z" />
    <glyph glyph-name="Pdotaccent" unicode="&#x1e56;" horiz-adv-x="1146" 
d="M246 676v-676h-82v1597h414q70 0 132.5 -12t125 -43t107.5 -79.5t73 -126.5t28 -179v-41q0 -101 -28 -179t-73 -126.5t-107.5 -79.5t-125 -43t-132.5 -12h-332zM246 754h332q36 0 70.5 4t73 14.5t71.5 28t64 46t53 65.5t35 90.5t13 117.5v33q0 89 -25 156.5t-63 106.5
t-91 63.5t-101 32.5t-100 8h-332v-766zM645 1894v-122h-123v122h123z" />
    <glyph glyph-name="pdotaccent" unicode="&#x1e57;" horiz-adv-x="1075" 
d="M543 -20q-218 0 -318 153v-543h-82v1188l-10 307h62l18 -153q104 174 330 174q87 0 157.5 -28t119 -77.5t81 -118.5t47.5 -148.5t15 -170.5v-41q0 -114 -24.5 -210.5t-73.5 -171.5t-131.5 -117.5t-190.5 -42.5zM225 840v-594q118 -189 307 -189q169 0 257 123.5t88 341.5
v41q0 218 -88 341.5t-257 123.5q-190 0 -307 -188zM604 1505v-123h-123v123h123z" />
    <glyph glyph-name="Tdotaccent" unicode="&#x1e6a;" horiz-adv-x="1024" 
d="M553 1520v-1520h-82v1520h-420v77h922v-77h-420zM573 1894v-122h-122v122h122z" />
    <glyph glyph-name="tdotaccent" unicode="&#x1e6b;" horiz-adv-x="798" 
d="M328 1085h368v-77h-368v-721q0 -132 53 -181t172 -49q80 0 123 19v-76q-47 -20 -144 -20q-132 0 -209 71.5t-77 224.5v732h-174v77h174v308h82v-308zM348 1649v-123h-123v123h123z" />
    <glyph glyph-name="Wgrave" unicode="&#x1e80;" horiz-adv-x="1802" 
d="M1270 -20l-369 1536l-369 -1536h-122l-310 1617h88l283 -1531l369 1531h123l368 -1531l283 1531h88l-309 -1617h-123zM731 1946h86l127 -226h-86z" />
    <glyph glyph-name="wgrave" unicode="&#x1e81;" horiz-adv-x="1433" 
d="M717 985l-281 -985h-114l-250 1085h84l225 -1003l285 1003h102l285 -1003l225 1003h84l-250 -1085h-115zM489 1597h86l185 -327h-86z" />
    <glyph glyph-name="Wacute" unicode="&#x1e82;" horiz-adv-x="1802" 
d="M1270 -20l-369 1536l-369 -1536h-122l-310 1617h88l283 -1531l369 1531h123l368 -1531l283 1531h88l-309 -1617h-123zM985 1946h86l-127 -226h-86z" />
    <glyph glyph-name="wacute" unicode="&#x1e83;" horiz-adv-x="1433" 
d="M717 985l-281 -985h-114l-250 1085h84l225 -1003l285 1003h102l285 -1003l225 1003h84l-250 -1085h-115zM858 1597h86l-184 -327h-86z" />
    <glyph glyph-name="Wdieresis" unicode="&#x1e84;" horiz-adv-x="1802" 
d="M1270 -20l-369 1536l-369 -1536h-122l-310 1617h88l283 -1531l369 1531h123l368 -1531l283 1531h88l-309 -1617h-123zM1116 1894v-122h-123v122h123zM809 1894v-122h-123v122h123z" />
    <glyph glyph-name="wdieresis" unicode="&#x1e85;" horiz-adv-x="1433" 
d="M717 985l-281 -985h-114l-250 1085h84l225 -1003l285 1003h102l285 -1003l225 1003h84l-250 -1085h-115zM932 1505v-123h-123v123h123zM625 1505v-123h-123v123h123z" />
    <glyph glyph-name="Eszett" unicode="&#x1e9e;" horiz-adv-x="1515" 
d="M629 889l344 602q-104 49 -266 49q-84 0 -151.5 -12.5t-128.5 -43.5t-102 -80.5t-65 -127.5t-24 -180v-1096h-82v1106q0 512 553 512q221 0 354 -82v-59l-334 -582l227 -29q240 -30 360 -142t120 -286v-20q0 -204 -125 -321t-336 -117q-228 0 -344.5 131t-116.5 381v20
h82q0 -236 100 -345.5t273 -109.5h12q167 0 268 92.5t101 258.5v20q0 310 -433 365l-286 36v60z" />
    <glyph glyph-name="Ygrave" unicode="&#x1ef2;" horiz-adv-x="1146" 
d="M614 481v-481h-82v481l-481 1116h88l434 -1013l435 1013h88zM403 1946h86l127 -226h-86z" />
    <glyph glyph-name="ygrave" unicode="&#x1ef3;" horiz-adv-x="946" 
d="M492 133l346 952h86l-392 -1048l-159 -447h-90l168 447l-392 1048h86zM264 1597h86l185 -327h-86z" />
    <glyph glyph-name="enspace" unicode="&#x2002;" horiz-adv-x="1024" 
 />
    <glyph glyph-name="emspace" unicode="&#x2003;" horiz-adv-x="2048" 
 />
    <glyph glyph-name="threeperemspace" unicode="&#x2004;" horiz-adv-x="681" 
 />
    <glyph glyph-name="fourperemspace" unicode="&#x2005;" horiz-adv-x="512" 
 />
    <glyph glyph-name="sixperemspace" unicode="&#x2006;" horiz-adv-x="342" 
 />
    <glyph glyph-name="figurespace" unicode="&#x2007;" horiz-adv-x="1228" 
 />
    <glyph glyph-name="punctuationspace" unicode="&#x2008;" horiz-adv-x="368" 
 />
    <glyph glyph-name="thinspace" unicode="&#x2009;" horiz-adv-x="307" 
 />
    <glyph glyph-name="hairspace" unicode="&#x200a;" horiz-adv-x="102" 
 />
    <glyph glyph-name="zerowidthspace" unicode="&#x200b;" horiz-adv-x="0" 
 />
    <glyph glyph-name="figuredash" unicode="&#x2012;" horiz-adv-x="1228" 
d="M82 678v78h1065v-78h-1065z" />
    <glyph glyph-name="endash" unicode="&#x2013;" horiz-adv-x="1024" 
d="M82 678v78h860v-78h-860z" />
    <glyph glyph-name="emdash" unicode="&#x2014;" horiz-adv-x="2048" 
d="M82 678v78h1884v-78h-1884z" />
    <glyph glyph-name="uni2015" unicode="&#x2015;" horiz-adv-x="2457" 
d="M82 678v78h2294v-78h-2294z" />
    <glyph glyph-name="doublebar" unicode="&#x2016;" horiz-adv-x="573" 
d="M143 -246v1966h82v-1966h-82zM348 -246v1966h82v-1966h-82z" />
    <glyph glyph-name="quoteleft" unicode="&#x2018;" horiz-adv-x="409" 
d="M82 1270v98q0 250 184 250v-62q-61 0 -90.5 -35.5t-32.5 -127.5h62v-123h-123z" />
    <glyph glyph-name="quoteright" unicode="&#x2019;" horiz-adv-x="409" 
d="M266 1597v-98q0 -250 -184 -250v62q61 0 90.5 36t32.5 128h-62v122h123z" />
    <glyph glyph-name="quotesinglbase" unicode="&#x201a;" horiz-adv-x="409" 
d="M266 123v-98q0 -250 -184 -250v61q61 0 90.5 36t32.5 128h-62v123h123z" />
    <glyph glyph-name="reversequoteleft" unicode="&#x201b;" horiz-adv-x="409" 
d="M82 1597h123v-122h-62q3 -92 32.5 -128t90.5 -36v-62q-184 0 -184 250v98z" />
    <glyph glyph-name="quotedblleft" unicode="&#x201c;" horiz-adv-x="655" 
d="M82 1270v98q0 250 184 250v-62q-61 0 -90.5 -35.5t-32.5 -127.5h62v-123h-123zM328 1270v98q0 250 184 250v-62q-61 0 -90.5 -35.5t-32.5 -127.5h62v-123h-123z" />
    <glyph glyph-name="quotedblright" unicode="&#x201d;" horiz-adv-x="655" 
d="M512 1597v-98q0 -250 -184 -250v62q61 0 90.5 36t32.5 128h-62v122h123zM266 1597v-98q0 -250 -184 -250v62q61 0 90.5 36t32.5 128h-62v122h123z" />
    <glyph glyph-name="quotedblbase" unicode="&#x201e;" horiz-adv-x="655" 
d="M512 123v-98q0 -250 -184 -250v61q61 0 90.5 36t32.5 128h-62v123h123zM266 123v-98q0 -250 -184 -250v61q61 0 90.5 36t32.5 128h-62v123h123z" />
    <glyph glyph-name="reversequotedblleft" unicode="&#x201f;" horiz-adv-x="655" 
d="M328 1597h123v-122h-62q3 -92 32.5 -128t90.5 -36v-62q-184 0 -184 250v98zM82 1597h123v-122h-62q3 -92 32.5 -128t90.5 -36v-62q-184 0 -184 250v98z" />
    <glyph glyph-name="dagger" unicode="&#x2020;" horiz-adv-x="778" 
d="M348 952l10 256h62l10 -256l-10 -256h-62zM348 1638h82l-10 -307h-62zM737 1311v-82l-286 10v61zM41 1229v82l287 -11v-61z" />
    <glyph glyph-name="daggerdbl" unicode="&#x2021;" horiz-adv-x="778" 
d="M348 522l10 256h62l10 -256l-10 -256h-62zM348 1638h82l-10 -307h-62zM737 1311v-82l-286 10v61zM41 1229v82l287 -11v-61zM737 881v-82l-286 10v61zM41 799v82l287 -11v-61zM348 1055h82l-10 -154h-62zM430 1055h-82l10 153h62z" />
    <glyph glyph-name="bullet" unicode="&#x2022;" horiz-adv-x="778" 
d="M635 963v-492h-492v492h492z" />
    <glyph glyph-name="ellipsis" unicode="&#x2026;" horiz-adv-x="2048" 
d="M430 123v-123h-123v123h123zM1741 123v-123h-123v123h123zM1085 123v-123h-122v123h122z" />
    <glyph glyph-name="perthousand" unicode="&#x2030;" horiz-adv-x="2621" 
d="M1102 338q0 162 93.5 250t234.5 88t234 -88t93 -250v-21q0 -162 -93 -249.5t-234 -87.5t-234.5 87.5t-93.5 249.5v21zM1880 338q0 162 93.5 250t234.5 88t234 -88t93 -250v-21q0 -162 -93 -249.5t-234 -87.5t-234.5 87.5t-93.5 249.5v21zM1180 309q0 -119 69.5 -185.5
t173.5 -66.5h13q104 0 173.5 66.5t69.5 185.5v37q0 119 -69.5 185.5t-173.5 66.5h-13q-104 0 -173.5 -66.5t-69.5 -185.5v-37zM1958 309q0 -119 70 -185.5t174 -66.5h12q104 0 174 66.5t70 185.5v37q0 119 -70 185.5t-174 66.5h-12q-104 0 -174 -66.5t-70 -185.5v-37z
M664 1288q0 119 -70 185.5t-174 66.5h-12q-104 0 -174 -66.5t-70 -185.5v-37q0 -119 70 -185.5t174 -66.5h12q104 0 174 66.5t70 185.5v37zM633 0h-86l618 1491q-117 -37 -264 -37q-107 0 -211 23q51 -79 51 -197v-20q0 -162 -93 -250t-234 -88t-234.5 88t-93.5 250v20
q0 162 93.5 250t234.5 88q66 0 125 -21q189 -65 362 -65q91 0 206 22t157 43v-75z" />
    <glyph glyph-name="tripleprime" unicode="&#x2034;" horiz-adv-x="819" 
d="M158 1597h94l-23 -512h-49zM567 1597h95l-23 -512h-49zM362 1597h95l-23 -512h-49z" />
    <glyph glyph-name="guilsinglleft" unicode="&#x2039;" 
d="M512 1044v-92l-334 -256l334 -256v-92l-410 318v61z" />
    <glyph glyph-name="guilsinglright" unicode="&#x203a;" 
d="M102 952v92l410 -317v-61l-410 -318v92l334 256z" />
    <glyph glyph-name="interrobang" unicode="&#x203d;" horiz-adv-x="901" 
d="M836 1188q0 -83 -19.5 -152t-50.5 -118.5t-69 -94.5t-76 -91t-70 -96.5t-53 -121.5t-23 -156h-49l-23 1178q-76 -10 -129 -50t-82 -109.5t-41 -154t-12 -198.5h-82v20q0 100 10 180t37 155.5t71 126.5t115.5 81.5t166.5 30.5q192 0 285.5 -110.5t93.5 -319.5zM750 1178
q0 169 -57 259.5t-197 100.5l-17 -920q23 57 61 116t72.5 104.5t66.5 96.5t51.5 112.5t19.5 130.5zM512 123v-123h-123v123h123z" />
    <glyph glyph-name="fraction" unicode="&#x2044;" horiz-adv-x="409" 
d="M-340 0h-90l1180 1597h90z" />
    <glyph glyph-name="uni2070" unicode="&#x2070;" 
d="M63 1368q0 109 60 174.5t184 65.5t184 -65.5t60 -174.5v-340q0 -111 -59.5 -176.5t-184.5 -65.5t-184.5 65.5t-59.5 176.5v340zM477 1360q0 88 -39 135t-129 47h-6q-90 0 -129 -47t-39 -135v-324q0 -184 168 -184h6q168 0 168 184v324z" />
    <glyph glyph-name="uni2074" unicode="&#x2074;" 
d="M449 799h-74v211h-342v49l344 538h72v-520h131v-67h-131v-211zM377 1473l-254 -398l88 2h164v291z" />
    <glyph glyph-name="uni2075" unicode="&#x2075;" 
d="M51 1055h74q0 -203 176 -203h10q75 0 126.5 46.5t51.5 137.5v19q0 91 -51.5 137.5t-128.5 46.5h-8q-58 0 -109 -28.5t-73 -80.5l-62 19l21 448h473v-67h-404l-12 -285q70 60 174 60q111 0 181.5 -66.5t70.5 -185.5v-13q0 -121 -70.5 -187.5t-183.5 -66.5q-128 0 -192 67
t-64 189v13z" />
    <glyph glyph-name="uni2076" unicode="&#x2076;" 
d="M528 1608v-66q-84 0 -165.5 -35t-135.5 -106q-60 -77 -82 -174q73 73 181 73q107 0 173 -64t66 -187v-11q0 -123 -68.5 -187.5t-185.5 -64.5q-113 0 -184.5 75t-71.5 206v12q0 213 113 365q62 84 158.5 124t201.5 40zM313 1235q-60 0 -108.5 -30.5t-75.5 -82.5v-57
q0 -97 51 -155t127 -58h6q83 0 132 48.5t49 135.5v17q0 86 -47.5 134t-127.5 48h-6z" />
    <glyph glyph-name="uni2077" unicode="&#x2077;" 
d="M59 1311v286h504v-45l-307 -753h-78l299 733l-112 -2h-240v-219h-66z" />
    <glyph glyph-name="uni2078" unicode="&#x2078;" 
d="M307 786q-114 0 -185 60t-71 155v17q0 71 34.5 118t94.5 68q-123 45 -123 180v15q0 96 65.5 152.5t184.5 56.5t184.5 -56.5t65.5 -152.5v-15q0 -134 -125 -180q60 -21 94.5 -68t34.5 -118v-17q0 -95 -70.5 -155t-183.5 -60zM293 1174q-73 0 -120.5 -41t-47.5 -115v-14
q0 -74 51.5 -113t124.5 -39h10q75 0 126.5 39t51.5 113v14q0 74 -47 115t-120 41h-29zM311 1542h-10q-77 0 -124.5 -40.5t-47.5 -110.5v-9q0 -70 46.5 -106.5t121.5 -36.5h20q73 0 119.5 36.5t46.5 106.5v9q0 70 -47.5 110.5t-124.5 40.5z" />
    <glyph glyph-name="uni2079" unicode="&#x2079;" 
d="M84 786v66q85 0 166.5 35t136.5 106q56 73 80 176q-70 -73 -180 -73q-107 0 -173.5 64t-66.5 186v10q0 123 68.5 187.5t187.5 64.5q113 0 183.5 -74.5t70.5 -206.5v-10q0 -216 -113 -367q-62 -83 -159 -123.5t-201 -40.5zM301 1161q59 0 107 30t75 81q2 16 2 49v10
q0 96 -51.5 153.5t-128.5 57.5h-6q-82 0 -130 -48t-48 -134v-19q0 -86 47 -133t127 -47h6z" />
    <glyph glyph-name="uni207A" unicode="&#x207a;" 
d="M272 1456h68v-225h225v-68h-225v-223h-68v223h-223v68h223v225z" />
    <glyph glyph-name="uni207B" unicode="&#x207b;" 
d="M49 1163v68h516v-68h-516z" />
    <glyph glyph-name="uni207C" unicode="&#x207c;" 
d="M49 1268v67h516v-67h-516zM49 1059v67h516v-67h-516z" />
    <glyph glyph-name="uni207D" unicode="&#x207d;" horiz-adv-x="323" 
d="M61 1188v20q0 215 125 389h76q-129 -190 -129 -389v-20q0 -203 129 -389h-76q-125 170 -125 389z" />
    <glyph glyph-name="uni207E" unicode="&#x207e;" horiz-adv-x="323" 
d="M262 1208v-20q0 -219 -125 -389h-76q129 186 129 389v20q0 199 -129 389h76q125 -174 125 -389z" />
    <glyph glyph-name="uni2080" unicode="&#x2080;" 
d="M63 569q0 109 60 174.5t184 65.5t184 -65.5t60 -174.5v-340q0 -111 -59.5 -176t-184.5 -65t-184.5 65t-59.5 176v340zM477 561q0 88 -39 135t-129 47h-6q-90 0 -129 -47t-39 -135v-323q0 -185 168 -185h6q168 0 168 185v323z" />
    <glyph glyph-name="uni2081" unicode="&#x2081;" 
d="M561 0h-489v66h209v636l-189 -127l-37 58l252 170h47v-737h207v-66z" />
    <glyph glyph-name="uni2082" unicode="&#x2082;" 
d="M557 66v-66h-500v45l344 367q46 47 64 83t18 80v11q0 73 -47.5 115t-126.5 42h-6q-88 0 -131 -50t-43 -161h-72v25q0 252 250 252q119 0 184.5 -58t65.5 -155v-12q0 -61 -20 -104.5t-74 -100.5l-295 -313h389z" />
    <glyph glyph-name="uni2083" unicode="&#x2083;" 
d="M125 256q0 -203 176 -203h10q74 0 126 40t52 114v14q0 74 -46.5 114t-120.5 40h-117v65h112q73 0 119.5 36t46.5 106v8q0 70 -47.5 111.5t-124.5 41.5h-10q-88 0 -130 -50t-42 -161h-72v25q0 252 250 252q119 0 184.5 -57.5t65.5 -153.5v-14q0 -132 -125 -178
q129 -46 129 -185v-16q0 -95 -71 -156t-183 -61q-128 0 -192 67t-64 189v12h74z" />
    <glyph glyph-name="uni2084" unicode="&#x2084;" 
d="M449 0h-74v211h-342v49l344 539h72v-520h131v-68h-131v-211zM377 674l-254 -398l88 3h164v290z" />
    <glyph glyph-name="uni2085" unicode="&#x2085;" 
d="M51 256h74q0 -203 176 -203h10q75 0 126.5 47t51.5 138v18q0 91 -51.5 137.5t-128.5 46.5h-8q-59 0 -109.5 -28t-72.5 -80l-62 18l21 449h473v-68h-404l-12 -285q70 60 174 60q111 0 181.5 -66.5t70.5 -185.5v-12q0 -121 -70.5 -187.5t-183.5 -66.5q-128 0 -192 67
t-64 189v12z" />
    <glyph glyph-name="uni2086" unicode="&#x2086;" 
d="M528 809v-66q-84 0 -165.5 -35t-135.5 -106q-60 -77 -82 -174q74 74 181 74t173 -64.5t66 -187.5v-10q0 -123 -68.5 -187.5t-185.5 -64.5q-113 0 -184.5 75t-71.5 205v13q0 212 113 364q62 84 158.5 124t201.5 40zM313 436q-61 0 -109 -30t-75 -82v-58q0 -97 51 -155
t127 -58h6q83 0 132 49t49 136v16q0 86 -47.5 134t-127.5 48h-6z" />
    <glyph glyph-name="uni2087" unicode="&#x2087;" 
d="M59 512v287h504v-45l-307 -754h-78l299 733l-112 -2h-240v-219h-66z" />
    <glyph glyph-name="uni2088" unicode="&#x2088;" 
d="M307 -12q-114 0 -185 60t-71 155v16q0 71 34.5 118.5t94.5 68.5q-123 45 -123 180v14q0 96 65.5 152.5t184.5 56.5t184.5 -56.5t65.5 -152.5v-14q0 -134 -125 -180q60 -21 94.5 -68.5t34.5 -118.5v-16q0 -95 -70.5 -155t-183.5 -60zM293 375q-73 0 -120.5 -41t-47.5 -115
v-14q0 -74 51.5 -113t124.5 -39h10q75 0 126.5 39t51.5 113v14q0 74 -47 115t-120 41h-29zM311 743h-10q-77 0 -124.5 -40.5t-47.5 -110.5v-8q0 -70 47 -107t121 -37h20q73 0 119.5 37t46.5 107v8q0 70 -47.5 110.5t-124.5 40.5z" />
    <glyph glyph-name="uni2089" unicode="&#x2089;" 
d="M84 -12v65q85 0 166 35.5t137 106.5q56 73 80 176q-71 -74 -180 -74q-107 0 -173.5 64t-66.5 186v10q0 123 68.5 187.5t187.5 64.5q113 0 183.5 -74.5t70.5 -206.5v-10q0 -215 -113 -366q-62 -83 -159 -123.5t-201 -40.5zM301 362q59 0 107 30t75 81q2 16 2 49v10
q0 96 -51.5 153.5t-128.5 57.5h-6q-82 0 -130 -48t-48 -134v-18q0 -86 47 -133.5t127 -47.5h6z" />
    <glyph glyph-name="uni208A" unicode="&#x208a;" 
d="M272 657h68v-225h225v-67h-225v-224h-68v224h-223v67h223v225z" />
    <glyph glyph-name="uni208B" unicode="&#x208b;" 
d="M49 365v67h516v-67h-516z" />
    <glyph glyph-name="uni208C" unicode="&#x208c;" 
d="M49 469v68h516v-68h-516zM49 260v68h516v-68h-516z" />
    <glyph glyph-name="uni208D" unicode="&#x208d;" horiz-adv-x="323" 
d="M61 389v21q0 215 125 389h76q-129 -190 -129 -389v-21q0 -203 129 -389h-76q-125 170 -125 389z" />
    <glyph glyph-name="uni208E" unicode="&#x208e;" horiz-adv-x="323" 
d="M262 410v-21q0 -219 -125 -389h-76q129 186 129 389v21q0 199 -129 389h76q125 -174 125 -389z" />
    <glyph glyph-name="Euro" unicode="&#x20ac;" horiz-adv-x="1228" 
d="M72 901v82h157q20 331 138.5 483t339.5 152q223 0 321 -136t98 -407v-51h-82q0 277 -75 396.5t-252 119.5h-12q-354 0 -392 -557h588l-39 -82h-553v-205h490l-39 -82h-447q38 -557 392 -557h12q161 0 244 116t83 339h82v-20q0 -512 -419 -512q-221 0 -339.5 151.5
t-138.5 482.5h-157v82h153v205h-153z" />
    <glyph glyph-name="ruble" unicode="&#x20bd;" horiz-adv-x="1228" 
d="M328 676v-209h440v-78h-440v-389h-82v389h-195v78h195v209h-195v78h195v843h413q70 0 132.5 -12t125 -43t108 -79.5t73.5 -126.5t28 -179v-41q0 -101 -28 -179t-73.5 -126.5t-108 -79.5t-125 -43t-132.5 -12h-331zM328 754h331q52 0 100 8t101 32.5t91.5 63t63.5 106
t25 156.5v33q0 89 -25 156.5t-63.5 106.5t-91.5 63.5t-101 32.5t-100 8h-331v-766z" />
    <glyph glyph-name="numero" unicode="&#x2116;" horiz-adv-x="2170" 
d="M2083 1182q0 -86 -20 -157.5t-59 -127.5t-104 -87.5t-149 -31.5t-149 31.5t-104 87.5t-59 127.5t-20 157.5v32q0 86 20 157.5t59 127.5t104 87.5t149 31.5t149 -31.5t104 -87.5t59 -127.5t20 -157.5v-32zM1167 1597v-1597h-92l-839 1475l6 -390v-1085h-78v1597h92
l840 -1474l-6 389v1085h77zM1499 1182q0 -155 63 -243.5t189 -88.5t189 88.5t63 243.5v32q0 155 -63 243.5t-189 88.5t-189 -88.5t-63 -243.5v-32zM1434 457v71h634v-71h-634z" />
    <glyph glyph-name="published" unicode="&#x2117;" horiz-adv-x="1884" 
d="M123 799q0 167 65 318.5t174.5 261t261 174.5t318.5 65t318.5 -65t261 -174.5t174.5 -261t65 -318.5t-65 -318.5t-174.5 -261t-261 -174.5t-318.5 -65t-318.5 65t-261 174.5t-174.5 261t-65 318.5zM201 799q0 -202 99 -372.5t269.5 -270t372.5 -99.5t372.5 99.5
t269.5 270t99 372.5q0 151 -58.5 288.5t-157.5 236.5t-236.5 157.5t-288.5 58.5t-288.5 -58.5t-236.5 -157.5t-157.5 -236.5t-58.5 -288.5zM719 727v-410h-82v963h328q44 0 83 -7t78 -25t66.5 -47t45 -76t17.5 -109v-25q0 -62 -17.5 -109t-45 -76t-66.5 -47t-78 -25t-83 -7
h-246zM719 801h246q209 0 209 194v17q0 194 -209 194h-246v-405z" />
    <glyph glyph-name="servicemark" unicode="&#x2120;" horiz-adv-x="1044" 
d="M205 1337q-87 11 -122.5 47.5t-35.5 100.5v8q0 71 46 112.5t128 41.5q94 0 132 -44.5t38 -138.5v-16h-69q0 72 -21.5 102.5t-77.5 30.5h-4q-102 0 -102 -82v-6q0 -42 24.5 -63.5t91.5 -30.5q88 -12 126 -49.5t38 -104.5v-8q0 -77 -45 -122.5t-131 -45.5q-90 0 -135 50
t-45 143v8h70q0 -68 25 -101.5t83 -33.5h4q105 0 105 96v4q0 45 -28 69t-95 33zM866 1536l-123 -451h-81l-123 451l4 -143v-308h-70v553h107l122 -446l123 446h107v-553h-70v308z" />
    <glyph glyph-name="trademark" unicode="&#x2122;" horiz-adv-x="1044" 
d="M256 1573v-488h-70v488h-145v65h360v-65h-145zM866 1536l-123 -451h-81l-123 451l4 -143v-308h-70v553h107l122 -446l123 446h107v-553h-70v308z" />
    <glyph glyph-name="uni2153" unicode="&#x2153;" horiz-adv-x="1638" 
d="M274 0h-90l1180 1597h90zM1149 256q0 -203 176 -203h10q74 0 126 40t52 114v14q0 74 -46.5 114t-120.5 40h-117v65h112q73 0 119.5 36t46.5 106v8q0 70 -47.5 111.5t-124.5 41.5h-10q-88 0 -130 -50t-42 -161h-72v25q0 252 250 252q119 0 184.5 -57.5t65.5 -153.5v-14
q0 -132 -125 -178q129 -46 129 -185v-16q0 -95 -71 -156t-183 -61q-128 0 -192 67t-64 189v12h74zM561 799h-489v65h209v637l-189 -127l-37 58l252 170h47v-738h207v-65z" />
    <glyph glyph-name="uni2154" unicode="&#x2154;" horiz-adv-x="1638" 
d="M274 0h-90l1180 1597h90zM1149 256q0 -203 176 -203h10q74 0 126 40t52 114v14q0 74 -46.5 114t-120.5 40h-117v65h112q73 0 119.5 36t46.5 106v8q0 70 -47.5 111.5t-124.5 41.5h-10q-88 0 -130 -50t-42 -161h-72v25q0 252 250 252q119 0 184.5 -57.5t65.5 -153.5v-14
q0 -132 -125 -178q129 -46 129 -185v-16q0 -95 -71 -156t-183 -61q-128 0 -192 67t-64 189v12h74zM557 864v-65h-500v45l344 366q46 47 64 83.5t18 80.5v10q0 73 -47.5 115.5t-126.5 42.5h-6q-88 0 -131 -50t-43 -161h-72v25q0 252 250 252q119 0 184.5 -58t65.5 -155v-13
q0 -61 -20 -104t-74 -100l-295 -314h389z" />
    <glyph glyph-name="uni2155" unicode="&#x2155;" horiz-adv-x="1638" 
d="M1075 256h74q0 -203 176 -203h10q75 0 126.5 47t51.5 138v18q0 91 -51.5 137.5t-128.5 46.5h-8q-59 0 -109.5 -28t-72.5 -80l-62 18l21 449h473v-68h-404l-12 -285q70 60 174 60q111 0 181.5 -66.5t70.5 -185.5v-12q0 -121 -70.5 -187.5t-183.5 -66.5q-128 0 -192 67
t-64 189v12zM274 0h-90l1180 1597h90zM561 799h-489v65h209v637l-189 -127l-37 58l252 170h47v-738h207v-65z" />
    <glyph glyph-name="uni2156" unicode="&#x2156;" horiz-adv-x="1638" 
d="M1075 256h74q0 -203 176 -203h10q75 0 126.5 47t51.5 138v18q0 91 -51.5 137.5t-128.5 46.5h-8q-59 0 -109.5 -28t-72.5 -80l-62 18l21 449h473v-68h-404l-12 -285q70 60 174 60q111 0 181.5 -66.5t70.5 -185.5v-12q0 -121 -70.5 -187.5t-183.5 -66.5q-128 0 -192 67
t-64 189v12zM274 0h-90l1180 1597h90zM557 864v-65h-500v45l344 366q46 47 64 83.5t18 80.5v10q0 73 -47.5 115.5t-126.5 42.5h-6q-88 0 -131 -50t-43 -161h-72v25q0 252 250 252q119 0 184.5 -58t65.5 -155v-13q0 -61 -20 -104t-74 -100l-295 -314h389z" />
    <glyph glyph-name="uni2157" unicode="&#x2157;" horiz-adv-x="1638" 
d="M1075 256h74q0 -203 176 -203h10q75 0 126.5 47t51.5 138v18q0 91 -51.5 137.5t-128.5 46.5h-8q-59 0 -109.5 -28t-72.5 -80l-62 18l21 449h473v-68h-404l-12 -285q70 60 174 60q111 0 181.5 -66.5t70.5 -185.5v-12q0 -121 -70.5 -187.5t-183.5 -66.5q-128 0 -192 67
t-64 189v12zM274 0h-90l1180 1597h90zM125 1055q0 -203 176 -203h10q74 0 126 40t52 114v14q0 74 -46.5 114t-120.5 40h-117v65h112q73 0 119.5 35.5t46.5 105.5v9q0 70 -47.5 111.5t-124.5 41.5h-10q-88 0 -130 -50t-42 -161h-72v25q0 252 250 252q119 0 184.5 -57.5
t65.5 -153.5v-15q0 -132 -125 -178q129 -46 129 -184v-16q0 -96 -71 -157t-183 -61q-128 0 -192 67t-64 189v13h74z" />
    <glyph glyph-name="uni2158" unicode="&#x2158;" horiz-adv-x="1638" 
d="M449 799h-74v211h-342v49l344 538h72v-520h131v-67h-131v-211zM1075 256h74q0 -203 176 -203h10q75 0 126.5 47t51.5 138v18q0 91 -51.5 137.5t-128.5 46.5h-8q-59 0 -109.5 -28t-72.5 -80l-62 18l21 449h473v-68h-404l-12 -285q70 60 174 60q111 0 181.5 -66.5
t70.5 -185.5v-12q0 -121 -70.5 -187.5t-183.5 -66.5q-128 0 -192 67t-64 189v12zM274 0h-90l1180 1597h90zM377 1473l-254 -398l88 2h164v291z" />
    <glyph glyph-name="uni2159" unicode="&#x2159;" horiz-adv-x="1638" 
d="M1552 809v-66q-84 0 -165.5 -35t-135.5 -106q-60 -77 -82 -174q74 74 181 74t173 -64.5t66 -187.5v-10q0 -123 -68.5 -187.5t-185.5 -64.5q-113 0 -184.5 75t-71.5 205v13q0 212 113 364q62 84 158.5 124t201.5 40zM274 0h-90l1180 1597h90zM1337 436q-61 0 -109 -30
t-75 -82v-58q0 -97 51 -155t127 -58h6q83 0 132 49t49 136v16q0 86 -47.5 134t-127.5 48h-6zM561 799h-489v65h209v637l-189 -127l-37 58l252 170h47v-738h207v-65z" />
    <glyph glyph-name="uni215A" unicode="&#x215a;" horiz-adv-x="1638" 
d="M1552 809v-66q-84 0 -165.5 -35t-135.5 -106q-60 -77 -82 -174q74 74 181 74t173 -64.5t66 -187.5v-10q0 -123 -68.5 -187.5t-185.5 -64.5q-113 0 -184.5 75t-71.5 205v13q0 212 113 364q62 84 158.5 124t201.5 40zM51 1055h74q0 -203 176 -203h10q75 0 126.5 46.5
t51.5 137.5v19q0 91 -51.5 137.5t-128.5 46.5h-8q-58 0 -109 -28.5t-73 -80.5l-62 19l21 448h473v-67h-404l-12 -285q70 60 174 60q111 0 181.5 -66.5t70.5 -185.5v-13q0 -121 -70.5 -187.5t-183.5 -66.5q-128 0 -192 67t-64 189v13zM274 0h-90l1180 1597h90zM1337 436
q-61 0 -109 -30t-75 -82v-58q0 -97 51 -155t127 -58h6q83 0 132 49t49 136v16q0 86 -47.5 134t-127.5 48h-6z" />
    <glyph glyph-name="uni215B" unicode="&#x215b;" horiz-adv-x="1638" 
d="M1331 -12q-114 0 -185 60t-71 155v16q0 71 34.5 118.5t94.5 68.5q-123 45 -123 180v14q0 96 65.5 152.5t184.5 56.5t184.5 -56.5t65.5 -152.5v-14q0 -134 -125 -180q60 -21 94.5 -68.5t34.5 -118.5v-16q0 -95 -70.5 -155t-183.5 -60zM274 0h-90l1180 1597h90zM561 799
h-489v65h209v637l-189 -127l-37 58l252 170h47v-738h207v-65zM1317 375q-73 0 -120.5 -41t-47.5 -115v-14q0 -74 51.5 -113t124.5 -39h10q75 0 126.5 39t51.5 113v14q0 74 -47 115t-120 41h-29zM1335 743h-10q-77 0 -124.5 -40.5t-47.5 -110.5v-8q0 -70 47 -107t121 -37h20
q73 0 119.5 37t46.5 107v8q0 70 -47.5 110.5t-124.5 40.5z" />
    <glyph glyph-name="uni215C" unicode="&#x215c;" horiz-adv-x="1638" 
d="M1331 -12q-114 0 -185 60t-71 155v16q0 71 34.5 118.5t94.5 68.5q-123 45 -123 180v14q0 96 65.5 152.5t184.5 56.5t184.5 -56.5t65.5 -152.5v-14q0 -134 -125 -180q60 -21 94.5 -68.5t34.5 -118.5v-16q0 -95 -70.5 -155t-183.5 -60zM274 0h-90l1180 1597h90zM125 1055
q0 -203 176 -203h10q74 0 126 40t52 114v14q0 74 -46.5 114t-120.5 40h-117v65h112q73 0 119.5 35.5t46.5 105.5v9q0 70 -47.5 111.5t-124.5 41.5h-10q-88 0 -130 -50t-42 -161h-72v25q0 252 250 252q119 0 184.5 -57.5t65.5 -153.5v-15q0 -132 -125 -178q129 -46 129 -184
v-16q0 -96 -71 -157t-183 -61q-128 0 -192 67t-64 189v13h74zM1317 375q-73 0 -120.5 -41t-47.5 -115v-14q0 -74 51.5 -113t124.5 -39h10q75 0 126.5 39t51.5 113v14q0 74 -47 115t-120 41h-29zM1335 743h-10q-77 0 -124.5 -40.5t-47.5 -110.5v-8q0 -70 47 -107t121 -37h20
q73 0 119.5 37t46.5 107v8q0 70 -47.5 110.5t-124.5 40.5z" />
    <glyph glyph-name="uni215D" unicode="&#x215d;" horiz-adv-x="1638" 
d="M1331 -12q-114 0 -185 60t-71 155v16q0 71 34.5 118.5t94.5 68.5q-123 45 -123 180v14q0 96 65.5 152.5t184.5 56.5t184.5 -56.5t65.5 -152.5v-14q0 -134 -125 -180q60 -21 94.5 -68.5t34.5 -118.5v-16q0 -95 -70.5 -155t-183.5 -60zM51 1055h74q0 -203 176 -203h10
q75 0 126.5 46.5t51.5 137.5v19q0 91 -51.5 137.5t-128.5 46.5h-8q-58 0 -109 -28.5t-73 -80.5l-62 19l21 448h473v-67h-404l-12 -285q70 60 174 60q111 0 181.5 -66.5t70.5 -185.5v-13q0 -121 -70.5 -187.5t-183.5 -66.5q-128 0 -192 67t-64 189v13zM274 0h-90l1180 1597
h90zM1317 375q-73 0 -120.5 -41t-47.5 -115v-14q0 -74 51.5 -113t124.5 -39h10q75 0 126.5 39t51.5 113v14q0 74 -47 115t-120 41h-29zM1335 743h-10q-77 0 -124.5 -40.5t-47.5 -110.5v-8q0 -70 47 -107t121 -37h20q73 0 119.5 37t46.5 107v8q0 70 -47.5 110.5t-124.5 40.5z
" />
    <glyph glyph-name="uni215E" unicode="&#x215e;" horiz-adv-x="1638" 
d="M1331 -12q-114 0 -185 60t-71 155v16q0 71 34.5 118.5t94.5 68.5q-123 45 -123 180v14q0 96 65.5 152.5t184.5 56.5t184.5 -56.5t65.5 -152.5v-14q0 -134 -125 -180q60 -21 94.5 -68.5t34.5 -118.5v-16q0 -95 -70.5 -155t-183.5 -60zM274 0h-90l1180 1597h90zM59 1311
v286h504v-45l-307 -753h-78l299 733l-112 -2h-240v-219h-66zM1317 375q-73 0 -120.5 -41t-47.5 -115v-14q0 -74 51.5 -113t124.5 -39h10q75 0 126.5 39t51.5 113v14q0 74 -47 115t-120 41h-29zM1335 743h-10q-77 0 -124.5 -40.5t-47.5 -110.5v-8q0 -70 47 -107t121 -37h20
q73 0 119.5 37t46.5 107v8q0 70 -47.5 110.5t-124.5 40.5z" />
    <glyph glyph-name="uni215F" unicode="&#x215f;" horiz-adv-x="1024" 
d="M274 0h-90l1180 1597h90zM561 799h-489v65h209v637l-189 -127l-37 58l252 170h47v-738h207v-65z" />
    <glyph glyph-name="arrowleft" unicode="&#x2190;" horiz-adv-x="1884" 
d="M922 1597h114l-757 -757h1462v-82h-1462l757 -758h-114l-799 799z" />
    <glyph glyph-name="arrowup" unicode="&#x2191;" horiz-adv-x="1884" 
d="M143 705v114l799 799l799 -799v-114l-758 757v-1462h-82v1462z" />
    <glyph glyph-name="arrowright" unicode="&#x2192;" horiz-adv-x="1884" 
d="M848 1597h115l798 -798l-798 -799h-115l758 758h-1463v82h1463z" />
    <glyph glyph-name="arrowdown" unicode="&#x2193;" horiz-adv-x="1884" 
d="M143 778v115l758 -758v1462h82v-1462l758 758v-115l-799 -798z" />
    <glyph glyph-name="uni2196" unicode="&#x2196;" horiz-adv-x="1884" 
d="M225 0h-82v1597h1598v-81h-1458l1478 -1479l-57 -57l-1479 1478v-1458z" />
    <glyph glyph-name="uni2197" unicode="&#x2197;" horiz-adv-x="1884" 
d="M1741 0h-82v1458l-1479 -1478l-57 57l1479 1479h-1459v81h1598v-1597z" />
    <glyph glyph-name="uni2198" unicode="&#x2198;" horiz-adv-x="1884" 
d="M143 0v82h1459l-1479 1479l57 57l1479 -1479v1458h82v-1597h-1598z" />
    <glyph glyph-name="uni2199" unicode="&#x2199;" horiz-adv-x="1884" 
d="M1741 82v-82h-1598v1597h82v-1458l1479 1479l57 -57l-1478 -1479h1458z" />
    <glyph glyph-name="minus" unicode="&#x2212;" horiz-adv-x="1228" 
d="M102 758v82h1024v-82h-1024z" />
    <glyph glyph-name="approxequal" unicode="&#x2248;" horiz-adv-x="1228" 
d="M356 696q74 0 148 -23.5t124.5 -51t119 -51t133.5 -23.5q62 0 116.5 37t92.5 84l57 -58q-114 -141 -275 -141q-74 0 -147.5 23.5t-124 51t-119 51t-133.5 23.5q-62 0 -117 -36.5t-92 -83.5l-57 57q114 141 274 141zM356 1106q74 0 148 -23.5t124.5 -51.5t119 -51.5
t133.5 -23.5q62 0 116.5 37t92.5 84l57 -57q-114 -141 -275 -141q-74 0 -147.5 23.5t-124 51t-119 51t-133.5 23.5q-62 0 -116.5 -37t-92.5 -84l-57 58q114 141 274 141z" />
    <glyph glyph-name="notequal" unicode="&#x2260;" horiz-adv-x="1228" 
d="M102 963v81h609l155 267h88l-153 -267h325v-81h-372l-191 -328h563v-82h-610l-154 -266h-88l154 266h-326v82h373l189 328h-562z" />
    <glyph glyph-name="equivalence" unicode="&#x2261;" horiz-adv-x="1228" 
d="M102 1167v82h1024v-82h-1024zM102 348v82h1024v-82h-1024zM102 758v82h1024v-82h-1024z" />
    <glyph glyph-name="lessequal" unicode="&#x2264;" horiz-adv-x="1228" 
d="M1126 1257l-911 -321l911 -322v-86l-1024 367v82l1024 366v-86zM1126 340v-86l-1024 367v86z" />
    <glyph glyph-name="greaterequal" unicode="&#x2265;" horiz-adv-x="1228" 
d="M102 614l910 322l-910 321v86l1024 -366v-82l-1024 -367v86zM102 254v86l1024 367v-86z" />
    <glyph glyph-name="squaremultiply" unicode="&#x22a0;" horiz-adv-x="1884" 
d="M1741 0h-1598v1597h1598v-1597zM1663 1520h-1442v-1442h1442v1442zM465 262l-59 60l477 477l-477 477l59 59l477 -477l477 477l60 -59l-478 -477l478 -477l-60 -60l-477 477z" />
    <glyph glyph-name="house" unicode="&#x2302;" horiz-adv-x="1740" 
d="M1597 0h-1454v922l727 696l727 -696v-922z" />
    <glyph glyph-name="blacksquare" unicode="&#x25a0;" horiz-adv-x="1884" 
d="M1741 0h-1598v1597h1598v-1597z" />
    <glyph glyph-name="blacksquare" unicode="&#xe740;" horiz-adv-x="1884" 
d="M1741 0h-1598v1597h1598v-1597z" />
    <glyph glyph-name="whitesquare" unicode="&#x25a1;" horiz-adv-x="1884" 
d="M1741 0h-1598v1597h1598v-1597zM1663 1520h-1442v-1442h1442v1442z" />
    <glyph glyph-name="blacksmallsquare" unicode="&#x25aa;" horiz-adv-x="1392" 
d="M1229 0h-1086v1085h1086v-1085z" />
    <glyph glyph-name="whitesmallsquare" unicode="&#x25ab;" horiz-adv-x="1392" 
d="M143 1085h1086v-1085h-1086v1085zM1151 1008h-930v-930h930v930z" />
    <glyph glyph-name="triagup" unicode="&#x25b2;" horiz-adv-x="1904" 
d="M993 1618l779 -1618h-86l-734 1528l-733 -1528h-86l778 1618h82z" />
    <glyph glyph-name="triagrt" unicode="&#x25ba;" horiz-adv-x="1904" 
d="M1782 840v-82l-1618 -778v86l1528 733l-1528 733v86z" />
    <glyph glyph-name="triagdn" unicode="&#x25bc;" horiz-adv-x="1904" 
d="M911 -20l-778 1617h86l733 -1527l734 1527h86l-779 -1617h-82z" />
    <glyph glyph-name="triaglf" unicode="&#x25c4;" horiz-adv-x="1904" 
d="M123 840l1618 778v-86l-1528 -733l1528 -733v-86l-1618 778v82z" />
    <glyph glyph-name="whitecircle" unicode="&#x25cb;" horiz-adv-x="1884" 
d="M123 799q0 167 65 318.5t174.5 261t261 174.5t318.5 65t318.5 -65t261 -174.5t174.5 -261t65 -318.5t-65 -318.5t-174.5 -261t-261 -174.5t-318.5 -65t-318.5 65t-261 174.5t-174.5 261t-65 318.5zM201 799q0 -202 99 -372.5t269.5 -270t372.5 -99.5t372.5 99.5
t269.5 270t99 372.5q0 151 -58.5 288.5t-157.5 236.5t-236.5 157.5t-288.5 58.5t-288.5 -58.5t-236.5 -157.5t-157.5 -236.5t-58.5 -288.5z" />
    <glyph glyph-name="whitecircle" unicode="&#x25ef;" horiz-adv-x="1884" 
d="M123 799q0 167 65 318.5t174.5 261t261 174.5t318.5 65t318.5 -65t261 -174.5t174.5 -261t65 -318.5t-65 -318.5t-174.5 -261t-261 -174.5t-318.5 -65t-318.5 65t-261 174.5t-174.5 261t-65 318.5zM201 799q0 -202 99 -372.5t269.5 -270t372.5 -99.5t372.5 99.5
t269.5 270t99 372.5q0 151 -58.5 288.5t-157.5 236.5t-236.5 157.5t-288.5 58.5t-288.5 -58.5t-236.5 -157.5t-157.5 -236.5t-58.5 -288.5z" />
    <glyph glyph-name="blackcircle" unicode="&#x25cf;" horiz-adv-x="1884" 
d="M123 799q0 167 65 318.5t174.5 261t261 174.5t318.5 65t318.5 -65t261 -174.5t174.5 -261t65 -318.5t-65 -318.5t-174.5 -261t-261 -174.5t-318.5 -65t-318.5 65t-261 174.5t-174.5 261t-65 318.5z" />
    <glyph glyph-name="uni25E2" unicode="&#x25e2;" horiz-adv-x="1904" 
d="M1769 29l-57 -58l-1694 592l62 62l1597 -564l-561 1600l62 61z" />
    <glyph glyph-name="uni25E3" unicode="&#x25e3;" horiz-adv-x="1904" 
d="M135 29l592 1693l61 -61l-563 -1600l1600 564l61 -62l-1693 -592z" />
    <glyph glyph-name="uni25E4" unicode="&#x25e4;" horiz-adv-x="1904" 
d="M135 1569l58 57l1693 -592l-61 -61l-1600 561l563 -1597l-61 -62z" />
    <glyph glyph-name="uni25E5" unicode="&#x25e5;" horiz-adv-x="1904" 
d="M1769 1569l-591 -1694l-62 62l561 1597l-1597 -561l-62 61l1694 592z" />
    <glyph glyph-name="uni2605" unicode="&#x2605;" horiz-adv-x="1802" 
d="M901 369l-532 -389l202 628l-532 387h659l203 627l203 -627h659l-532 -387l203 -628z" />
    <glyph glyph-name="ballotboxwithx" unicode="&#x2612;" horiz-adv-x="1392" 
d="M1229 0h-1086v1085h1086v-1085zM1151 1008h-930v-930h930v930zM414 211l-60 59l273 273l-273 272l60 59l272 -272l272 272l60 -59l-273 -272l273 -273l-60 -59l-272 272z" />
    <glyph glyph-name="uni263C" unicode="&#x263c;" horiz-adv-x="1966" 
d="M1067 391l-86 -414l-86 414q0 -80 -59 -135q-17 -16 -61 -45.5t-61.5 -53.5t-17.5 -61q0 -19 6 -37t12 -26l7 -8q-45 13 -69.5 48t-24.5 79q0 61 43 104q41 41 62.5 97t21.5 98l-353 -232l232 352q-53 -53 -135 -53q-19 0 -64.5 8.5t-62.5 8.5q-31 0 -55 -10t-36 -24.5
t-19.5 -29.5t-8.5 -25l-2 -10q-17 31 -17 58q0 59 42.5 100t103.5 41q42 0 89.5 17.5t74.5 35t32 25.5l-413 86l413 86q-80 0 -135 59q-16 18 -37.5 48.5t-34 47t-35.5 30t-52 13.5q-19 0 -37 -6t-26 -12l-9 -6q13 45 48 69.5t79 24.5q61 0 104 -43q41 -41 97 -62.5
t98 -21.5l-232 352l353 -231q-54 54 -54 135q0 19 8.5 64.5t8.5 62.5q0 31 -10 55t-24.5 36t-29 19.5t-24.5 8.5l-10 2q29 16 57 16q59 0 100 -42t41 -103q0 -42 17.5 -89.5t35 -75t25.5 -32.5l86 414l86 -414q0 80 59 135q17 16 61 45.5t61.5 53.5t17.5 61q0 19 -6 37
t-12 26l-7 9q45 -13 69.5 -48t24.5 -79q0 -62 -43 -105q-41 -41 -62.5 -96.5t-21.5 -97.5l353 231l-232 -352q53 53 135 53q19 0 64.5 -8t62.5 -8q31 0 55 10t36 24.5t19.5 29t8.5 24.5l2 10q17 -31 17 -57q0 -59 -42.5 -100t-103.5 -41q-42 0 -89.5 -17.5t-74.5 -35
t-32 -25.5l413 -86l-413 -86q79 0 135 -60q16 -18 37.5 -48.5t34 -47t35.5 -30t52 -13.5q19 0 37 6t26 12l9 7q-13 -45 -48.5 -70t-78.5 -25q-61 0 -104 43q-41 41 -97 62.5t-98 21.5l232 -352l-353 232q54 -54 54 -136q0 -19 -8.5 -64.5t-8.5 -62.5q0 -31 10 -55
t24.5 -35.5t29 -19t24.5 -8.5l10 -2q-31 -17 -57 -17q-59 0 -100 42.5t-41 103.5q0 42 -17.5 89.5t-35 74.5t-25.5 32z" />
    <glyph glyph-name="uni263E" unicode="&#x263e;" horiz-adv-x="1966" 
d="M1278 1491q-181 0 -333.5 -92.5t-241.5 -252t-89 -347.5q0 -141 52.5 -269.5t141.5 -221t212 -147.5t258 -55q99 0 197 31q-218 -157 -492 -157q-167 0 -318.5 65t-261 174.5t-174.5 261t-65 318.5t65 318.5t174.5 261t261 174.5t318.5 65q268 0 492 -158
q-109 31 -197 31z" />
    <glyph glyph-name="spade" unicode="&#x2660;" horiz-adv-x="1843" 
d="M924 1618q66 -99 199 -238t278 -233q60 -39 104 -73t90.5 -79t75.5 -90t47.5 -102t18.5 -119q0 -150 -105 -253t-256 -103q-142 0 -246 93.5t-163 235.5l-6 -2q17 -210 54 -356.5t113 -298.5h-413q76 152 113.5 299t54.5 356l-6 2q-27 -67 -65.5 -124t-89 -104
t-116.5 -74t-139 -27q-151 0 -256 103t-105 253q0 62 18.5 119t47.5 102t75.5 90t90.5 79t104 73q146 95 279 233.5t199 237.5h4z" />
    <glyph glyph-name="club" unicode="&#x2663;" horiz-adv-x="1843" 
d="M715 0q76 152 113.5 299t54.5 356l-6 2q-27 -67 -65.5 -124t-89 -104t-116.5 -74t-139 -27q-151 0 -256 103t-105 253q0 161 99 265t258 104q84 0 172 -47l4 4q-78 118 -78 239q0 154 103.5 261.5t257.5 107.5t257 -107.5t103 -261.5q0 -121 -78 -239l4 -4q88 47 172 47
q159 0 258 -104t99 -265q0 -150 -105 -253t-256 -103q-142 0 -246 93.5t-163 235.5l-6 -2q17 -210 54 -356.5t113 -298.5h-413z" />
    <glyph glyph-name="heart" unicode="&#x2665;" horiz-adv-x="1843" 
d="M924 -20h-4q-59 88 -193.5 259t-284.5 341q-64 73 -114 136.5t-105 148.5t-86 170t-31 161q0 185 107 303.5t285 118.5q92 0 163.5 -25.5t120.5 -73t80.5 -100.5t55.5 -123h8q24 70 55.5 123t80.5 100.5t120.5 73t163.5 25.5q178 0 284.5 -118.5t106.5 -303.5
q0 -76 -31 -161t-86 -170t-105 -148.5t-114 -136.5q-149 -169 -283.5 -340t-193.5 -260z" />
    <glyph glyph-name="diamond" unicode="&#x2666;" horiz-adv-x="1843" 
d="M1673 799q-218 -170 -415 -386t-334 -433h-4q-137 217 -334.5 433t-415.5 386q218 170 415.5 386t334.5 433h4q137 -217 334 -433t415 -386z" />
    <glyph glyph-name="uni267B" unicode="&#x267b;" horiz-adv-x="1966" 
d="M1767 545l2 -4l-196 -342q-41 -60 -60 -77q-44 -38 -120 -38h-117v-100l-232 278l232 277v-101h297q34 0 66.5 11t54.5 27t39.5 31.5t25.5 26.5zM381 250h-4l-197 344q-23 42 -31.5 65.5t-5.5 63t29 82.5l57 100l-86 49l357 64l121 -340l-84 49q-144 -246 -148 -256
q-27 -46 -29 -101.5t10 -87.5zM827 1595v2h396q37 -1 56 -3t46 -11t47 -29t39 -53l57 -100l88 49l-124 -340l-355 64l84 49l-147 256q-27 47 -74 76t-80 35zM410 1225l137 243q21 38 69 64q63 34 131.5 30.5t126.5 -33t80 -69.5l-237 -411zM913 84h-276q-43 0 -90 27
q-45 26 -76 70.5t-42.5 91.5t-9.5 91.5t19 73.5h475v-354zM1651 1079l141 -239q20 -36 20 -90q1 -99 -78 -178.5t-151 -79.5l-237 411z" />
    <glyph glyph-name="uni267C" unicode="&#x267c;" horiz-adv-x="1966" 
d="M598 1321l-106 -188l237 -138l184 320q-17 30 -62 52.5t-98 25.5t-102 -23q-37 -21 -53 -49zM807 1421v-2q4 0 11 -1.5t26.5 -7.5t36.5 -14.5t37.5 -26.5t33.5 -40l115 -199l-66 -38l275 -50l96 265l-67 -39l-45 78q-28 49 -60 62t-86 13h-307zM659 248h215v274h-368
q-13 -22 -15 -57t7.5 -71.5t33.5 -71t58 -54.5q36 -20 69 -20zM467 377h2q-5 10 -10.5 27.5t-5 63t21.5 81.5l115 199l65 -39l-94 264l-276 -49l67 -39l-45 -78q-20 -34 -22.5 -65t4 -48.5t24.5 -50.5zM1563 834l-109 186l-237 -137l184 -320q57 0 118 61.5t60 139.5
q0 42 -16 70zM1546 602l-2 2q-2 -3 -6.5 -8.5t-19.5 -20t-31.5 -25t-42 -19.5t-51.5 -9h-230v78l-180 -215l180 -215v78h90q57 0 85 21.5t55 66.5zM131 799q0 221 108.5 407.5t295 295t407.5 108.5t407.5 -108.5t295 -295t108.5 -407.5t-108.5 -407.5t-295 -295
t-407.5 -108.5t-407.5 108.5t-295 295t-108.5 407.5z" />
    <glyph glyph-name="uni267D" unicode="&#x267d;" horiz-adv-x="1966" 
d="M492 1133l106 188q16 28 53 49q49 26 102 23t98 -25.5t62 -52.5l-184 -320zM807 1419v2h307q54 0 86 -13t60 -62l45 -78l67 39l-96 -265l-275 50l66 38l-115 199q-21 36 -57 58.5t-62 26.5zM874 248h-215q-33 0 -69 20q-34 20 -58 54.5t-33.5 71t-7.5 71.5t15 57h368
v-274zM469 377h-2l-154 266q-18 33 -24.5 50.5t-4 48.5t22.5 65l45 78l-67 39l276 49l94 -264l-65 39l-115 -199q-21 -36 -22.5 -79t7.5 -68zM1454 1020l109 -186q16 -28 16 -70q1 -78 -60 -139.5t-118 -61.5l-184 320zM1544 604l2 -2l-153 -266q-18 -30 -31 -46t-41 -29
t-68 -13h-90v-78l-180 215l180 215v-78h230q42 0 79.5 20.5t54.5 41.5zM123 799q0 167 65 318.5t174.5 261t261 174.5t318.5 65t318.5 -65t261 -174.5t174.5 -261t65 -318.5t-65 -318.5t-174.5 -261t-261 -174.5t-318.5 -65t-318.5 65t-261 174.5t-174.5 261t-65 318.5z
M201 799q0 -202 99 -372.5t269.5 -270t372.5 -99.5t372.5 99.5t269.5 270t99 372.5q0 151 -58.5 288.5t-157.5 236.5t-236.5 157.5t-288.5 58.5t-288.5 -58.5t-236.5 -157.5t-157.5 -236.5t-58.5 -288.5z" />
    <glyph glyph-name="mediumwhitecircle" unicode="&#x26aa;" horiz-adv-x="1372" 
d="M123 543q0 153 75.5 282.5t205 205t282.5 75.5t282.5 -75.5t205 -205t75.5 -282.5t-75.5 -282.5t-205 -205t-282.5 -75.5t-282.5 75.5t-205 205t-75.5 282.5zM201 543q0 -132 65 -244t176.5 -177t243.5 -65t243.5 65t176.5 177t65 244t-65 243.5t-176.5 176.5t-243.5 65
t-243.5 -65t-176.5 -176.5t-65 -243.5z" />
    <glyph glyph-name="mediumblackcircle" unicode="&#x26ab;" horiz-adv-x="1372" 
d="M123 543q0 153 75.5 282.5t205 205t282.5 75.5t282.5 -75.5t205 -205t75.5 -282.5t-75.5 -282.5t-205 -205t-282.5 -75.5t-282.5 75.5t-205 205t-75.5 282.5z" />
    <glyph glyph-name="anglebracketleft" unicode="&#x3008;" 
d="M528 1720l-331 -983l331 -983h-84l-331 983l331 983h84z" />
    <glyph glyph-name="anglebracketright" unicode="&#x3009;" 
d="M86 -246l332 983l-332 983h84l332 -983l-332 -983h-84z" />
    <glyph glyph-name="fi" unicode="&#xe38c;" horiz-adv-x="1167" 
d="M328 1352v-267h327v-77h-327v-1008h-82v1008h-174v77h174v277q0 153 77.5 225t208.5 72q95 0 144 -21v-75q-41 18 -123 18q-119 0 -172 -48.5t-53 -180.5zM922 0v1085h82v-1085h-82zM1024 1505v-123h-123v123h123z" />
    <glyph glyph-name="fi" unicode="&#xfb01;" horiz-adv-x="1167" 
d="M328 1352v-267h327v-77h-327v-1008h-82v1008h-174v77h174v277q0 153 77.5 225t208.5 72q95 0 144 -21v-75q-41 18 -123 18q-119 0 -172 -48.5t-53 -180.5zM922 0v1085h82v-1085h-82zM1024 1505v-123h-123v123h123z" />
    <glyph glyph-name="fl" unicode="&#xe38d;" horiz-adv-x="1167" 
d="M328 1352v-267h327v-77h-327v-1008h-82v1008h-174v77h174v277q0 153 77.5 225t208.5 72q95 0 144 -21v-75q-41 18 -123 18q-119 0 -172 -48.5t-53 -180.5zM922 0v1638h82v-1638h-82z" />
    <glyph glyph-name="fl" unicode="&#xfb02;" horiz-adv-x="1167" 
d="M328 1352v-267h327v-77h-327v-1008h-82v1008h-174v77h174v277q0 153 77.5 225t208.5 72q95 0 144 -21v-75q-41 18 -123 18q-119 0 -172 -48.5t-53 -180.5zM922 0v1638h82v-1638h-82z" />
    <glyph glyph-name="invertedbreve" unicode="&#xe411;" horiz-adv-x="1024" 
d="M512 1618q156 0 233.5 -93.5t77.5 -254.5h-73q0 129 -57 204.5t-181 75.5t-181 -75.5t-57 -204.5h-73q0 161 77.5 254.5t233.5 93.5z" />
    <glyph glyph-name="doublegrave" unicode="&#xe412;" horiz-adv-x="1024" 
d="M172 1597h86l184 -327h-86zM397 1597h86l185 -327h-86z" />
    <glyph glyph-name="caronSlovak" unicode="&#xe413;" horiz-adv-x="1024" 
d="M676 1638h92l-31 -368h-61v368z" />
    <glyph glyph-name="commaaccent" unicode="&#xe414;" horiz-adv-x="1232" 
d="M573 -123v-98q0 -95 -49.5 -152t-134.5 -57v61q52 0 85.5 30.5t37.5 92.5h-61v123h122z" />
    <glyph glyph-name="commaaccent" unicode="&#xf6c3;" horiz-adv-x="1232" 
d="M573 -123v-98q0 -95 -49.5 -152t-134.5 -57v61q52 0 85.5 30.5t37.5 92.5h-61v123h122z" />
    <glyph glyph-name="dotbelow" unicode="&#xe415;" horiz-adv-x="1232" 
d="M573 -205v-123h-122v123h122z" />
    <glyph glyph-name="altcedilla" unicode="&#xe416;" horiz-adv-x="1232" 
d="M637 -279q0 80 -133 80q-67 0 -121 -20v63q60 25 139 25q43 0 82 -11.5t70 -46t31 -87.5q0 -80 -54 -117t-145 -37q-116 0 -180 45l26 61q58 -38 144 -38q73 0 107 18.5t34 64.5z" />
    <glyph glyph-name="grave.cap" unicode="&#xe421;" horiz-adv-x="1024" 
d="M342 1946h86l127 -226h-86z" />
    <glyph glyph-name="acute.cap" unicode="&#xe422;" horiz-adv-x="1024" 
d="M596 1946h86l-127 -226h-86z" />
    <glyph glyph-name="circumflex.cap" unicode="&#xe423;" horiz-adv-x="1024" 
d="M369 1720h-93l205 226h62l205 -226h-93l-143 158z" />
    <glyph glyph-name="tilde.cap" unicode="&#xe424;" horiz-adv-x="1024" 
d="M725 1909h74q0 -85 -40 -128.5t-108 -43.5q-40 0 -81 19.5t-69 43t-61.5 43t-60.5 19.5q-80 0 -80 -105h-74q0 85 40 128.5t108 43.5q40 0 81 -19.5t69 -43t61.5 -43t60.5 -19.5q80 0 80 105z" />
    <glyph glyph-name="macron.cap" unicode="&#xe425;" horiz-adv-x="1024" 
d="M307 1792v82h410v-82h-410z" />
    <glyph glyph-name="breve.cap" unicode="&#xe426;" horiz-adv-x="1024" 
d="M512 1700q-126 0 -198 68t-72 178h73q0 -80 50.5 -129.5t146.5 -49.5t146.5 49.5t50.5 129.5h73q0 -110 -72 -178t-198 -68z" />
    <glyph glyph-name="invertedbreve.cap" unicode="&#xe427;" horiz-adv-x="1024" 
d="M512 1966q126 0 198 -68t72 -178h-73q0 80 -50.5 129t-146.5 49t-146.5 -49t-50.5 -129h-73q0 110 72 178t198 68z" />
    <glyph glyph-name="dotaccent.cap" unicode="&#xe428;" horiz-adv-x="1024" 
d="M573 1894v-122h-122v122h122z" />
    <glyph glyph-name="dieresis.cap" unicode="&#xe429;" horiz-adv-x="1024" 
d="M420 1894v-122h-123v122h123zM727 1894v-122h-123v122h123z" />
    <glyph glyph-name="ring.cap" unicode="&#xe42a;" horiz-adv-x="1024" 
d="M328 1782q0 76 54 130t130 54t130 -54t54 -130q0 -77 -54 -131t-130 -54t-130 54t-54 131zM393 1782q0 -50 34.5 -84.5t84.5 -34.5t84.5 34.5t34.5 84.5t-34.5 84.5t-84.5 34.5t-84.5 -34.5t-34.5 -84.5z" />
    <glyph glyph-name="hungarumlaut.cap" unicode="&#xe42b;" horiz-adv-x="1024" 
d="M483 1946h86l-127 -226h-86zM709 1946h86l-127 -226h-86z" />
    <glyph glyph-name="doublegrave.cap" unicode="&#xe42c;" horiz-adv-x="1024" 
d="M455 1946h86l127 -226h-86zM229 1946h86l127 -226h-86z" />
    <glyph glyph-name="caron.cap" unicode="&#xe42d;" horiz-adv-x="1024" 
d="M276 1946h93l143 -158l143 158h93l-205 -226h-62z" />
    <glyph glyph-name="commaaccent.cap" unicode="&#xe42e;" horiz-adv-x="1024" 
d="M451 1720v99q0 63 37 105t116 42v-61q-47 0 -67 -14t-25 -48h61v-123h-122z" />
    <glyph glyph-name="exclamdown.cap" unicode="&#xe441;" horiz-adv-x="409" 
d="M252 0h-94l22 1239h49zM143 1475v122h123v-122h-123z" />
    <glyph glyph-name="questiondown.cap" unicode="&#xe444;" horiz-adv-x="901" 
d="M444 57q74 0 129.5 24.5t91.5 67.5t57.5 109.5t30.5 142t9 172.5h82v-20q0 -100 -10 -180t-37 -155.5t-71 -126t-115.5 -81t-166.5 -30.5q-378 0 -378 430q0 83 19.5 152t50.5 118t68.5 94.5t75.5 91t70 96t53 121.5t23 156h49q2 -85 -14.5 -160t-45 -130t-63.5 -106
t-70 -97.5t-64 -94t-47.5 -107t-18.5 -124.5q0 -181 64.5 -272t227.5 -91zM389 1475v122h123v-122h-123z" />
    <glyph glyph-name="guilsinglleft.cap" unicode="&#xe451;" 
d="M512 1147v-92l-334 -256l334 -256v-92l-410 317v61z" />
    <glyph glyph-name="guilsinglright.cap" unicode="&#xe452;" 
d="M102 1055v92l410 -318v-61l-410 -317v92l334 256z" />
    <glyph glyph-name="guillemotleft.cap" unicode="&#xe453;" horiz-adv-x="1024" 
d="M512 1147v-92l-334 -256l334 -256v-92l-410 317v61zM922 1147v-92l-334 -256l334 -256v-92l-410 317v61z" />
    <glyph glyph-name="guillemotright.cap" unicode="&#xe454;" horiz-adv-x="1024" 
d="M512 1055v92l410 -318v-61l-410 -317v92l334 256zM102 1055v92l410 -318v-61l-410 -317v92l334 256z" />
    <glyph glyph-name="slash.cap" unicode="&#xe461;" 
d="M152 0h-82l393 1597h82z" />
    <glyph glyph-name="backslash.cap" unicode="&#xe462;" 
d="M70 1597h82l393 -1597h-82z" />
    <glyph glyph-name="bar.cap" unicode="&#xe463;" horiz-adv-x="368" 
d="M143 0v1597h82v-1597h-82z" />
    <glyph glyph-name="doublebar.cap" unicode="&#xe464;" horiz-adv-x="573" 
d="M143 0v1597h82v-1597h-82zM348 0v1597h82v-1597h-82z" />
    <glyph glyph-name="brokenbar.cap" unicode="&#xe465;" horiz-adv-x="368" 
d="M143 881v716h82v-716h-82zM143 0v717h82v-717h-82z" />
    <glyph glyph-name="bullet.cap" unicode="&#xe466;" horiz-adv-x="778" 
d="M635 1044v-491h-492v491h492z" />
    <glyph glyph-name="onethirdemdash" unicode="&#xe471;" horiz-adv-x="681" 
d="M600 678h-518v78h518v-78z" />
    <glyph glyph-name="threequarteremdash" unicode="&#xe472;" horiz-adv-x="1536" 
d="M82 678v78h1372v-78h-1372z" />
    <glyph glyph-name="periodcentered.cap" unicode="&#xe481;" horiz-adv-x="409" 
d="M266 860v-123h-123v123h123z" />
    <glyph glyph-name="hyphen.cap" unicode="&#xe482;" horiz-adv-x="655" 
d="M82 760v78h491v-78h-491z" />
    <glyph glyph-name="onethirdemdash.cap" unicode="&#xe483;" horiz-adv-x="681" 
d="M600 760h-500v78h500v-78z" />
    <glyph glyph-name="endash.cap" unicode="&#xe484;" horiz-adv-x="1024" 
d="M82 760v78h860v-78h-860z" />
    <glyph glyph-name="threequarteremdash.cap" unicode="&#xe485;" horiz-adv-x="1536" 
d="M82 760v78h1372v-78h-1372z" />
    <glyph glyph-name="emdash.cap" unicode="&#xe486;" horiz-adv-x="2048" 
d="M82 760v78h1884v-78h-1884z" />
    <glyph glyph-name="figuredash.cap" unicode="&#xe487;" horiz-adv-x="1228" 
d="M82 760v78h1065v-78h-1065z" />
    <glyph glyph-name="uni2015.cap" unicode="&#xe488;" horiz-adv-x="2457" 
d="M82 760v78h2294v-78h-2294z" />
    <glyph glyph-name="parenleft.cap" unicode="&#xe491;" 
d="M133 778v41q0 406 252 778h90q-117 -169 -188.5 -370t-71.5 -408v-41q0 -207 71.5 -408t188.5 -370h-90q-252 372 -252 778z" />
    <glyph glyph-name="parenright.cap" unicode="&#xe492;" 
d="M481 819v-41q0 -406 -252 -778h-90q117 169 188.5 370t71.5 408v41q0 207 -71.5 408t-188.5 370h90q252 -372 252 -778z" />
    <glyph glyph-name="bracketleft.cap" unicode="&#xe493;" 
d="M143 1597h379v-81h-297v-1434h297v-82h-379v1597z" />
    <glyph glyph-name="bracketright.cap" unicode="&#xe494;" 
d="M471 0h-379v82h297v1434h-297v81h379v-1597z" />
    <glyph glyph-name="braceleft.cap" unicode="&#xe495;" 
d="M522 1597v-81q-104 0 -154.5 -48t-50.5 -178v-291q0 -149 -108 -200q108 -55 108 -201v-291q0 -130 50.5 -177.5t154.5 -47.5v-82h-30q-47 0 -88.5 12t-81 38.5t-63 79.5t-23.5 126v317q0 112 -42.5 148.5t-142.5 36.5v82q50 0 81.5 6.5t56.5 26t36 56.5t11 95v317
q0 73 23.5 126t63 79.5t81 38.5t88.5 12h30z" />
    <glyph glyph-name="braceright.cap" unicode="&#xe496;" 
d="M92 1516v81h31q47 0 88.5 -12t81 -38.5t63 -79.5t23.5 -126v-317q0 -112 42 -148t142 -36v-82q-100 0 -142 -36.5t-42 -148.5v-317q0 -73 -23.5 -126t-63 -79.5t-81 -38.5t-88.5 -12h-31v82q104 0 154.5 47.5t50.5 177.5v291q0 147 109 201q-109 50 -109 200v291
q0 130 -50.5 178t-154.5 48z" />
    <glyph glyph-name="anglebracketleft.cap" unicode="&#xe497;" 
d="M471 1597l-274 -798l274 -799h-84l-274 799l274 798h84z" />
    <glyph glyph-name="anglebracketright.cap" unicode="&#xe498;" 
d="M418 799l-275 798h84l275 -798l-275 -799h-84z" />
    <glyph glyph-name="lowline" unicode="&#xe511;" horiz-adv-x="655" 
d="M102 0v78h451v-78h-451z" />
    <glyph glyph-name="underscoremonospace" unicode="&#xe512;" horiz-adv-x="1228" 
d="M102 -242v78h1024v-78h-1024z" />
    <glyph glyph-name="underscoremonospace" unicode="&#xff3f;" horiz-adv-x="1228" 
d="M102 -242v78h1024v-78h-1024z" />
    <glyph glyph-name="at.cap" unicode="&#xe513;" horiz-adv-x="1945" 
d="M1018 -147h12q195 0 359.5 48.5t314.5 159.5l45 -61q-288 -225 -725 -225q-210 0 -386 68t-301.5 193t-195 310t-69.5 412v82q0 227 68 412t191.5 310t298 193t384.5 68q143 0 270.5 -33t235.5 -100.5t187 -165t123 -233.5t44 -298v-61q0 -104 -13.5 -188.5t-38.5 -146.5
t-62.5 -109t-81.5 -77.5t-101 -49t-116 -26t-130 -7.5h-51l-20 155q-46 -77 -128.5 -126.5t-199.5 -49.5q-107 0 -188.5 40.5t-128.5 110t-70 152.5t-23 178v41q0 95 23 178t70 153t128.5 110.5t188.5 40.5q118 0 200 -50t128 -128l20 157h61l-10 -307v-580q71 1 124.5 9
t109 28t93.5 57.5t69 94t46 142.5t15 198v61q0 152 -41.5 278t-113 212.5t-169.5 146.5t-209.5 87.5t-234.5 27.5h-12q-189 0 -347 -63t-270 -178t-174.5 -285.5t-62.5 -378.5v-82q0 -215 64 -387t178.5 -285t273 -173t348.5 -60zM1249 1044q-48 77 -125.5 133t-181.5 56
q-112 0 -188.5 -54.5t-111 -143.5t-34.5 -206v-41q0 -180 84 -291.5t250 -111.5q104 0 182 56t125 132v471z" />
    <glyph glyph-name="zero.inf" unicode="&#xe571;" 
d="M63 160q0 109 59.5 174t184.5 65t184.5 -65t59.5 -174v-340q0 -111 -59.5 -176.5t-184.5 -65.5t-184.5 65.5t-59.5 176.5v340zM477 152q0 88 -39 135t-129 47h-6q-90 0 -129 -47t-39 -135v-324q0 -184 168 -184h6q168 0 168 184v324z" />
    <glyph glyph-name="one.inf" unicode="&#xe572;" 
d="M561 -410h-489v66h209v637l-189 -127l-37 57l252 170h47v-737h207v-66z" />
    <glyph glyph-name="two.inf" unicode="&#xe573;" 
d="M557 -344v-66h-500v45l344 367q46 47 64 83.5t18 80.5v10q0 73 -47.5 115.5t-126.5 42.5h-6q-88 0 -131 -50t-43 -161h-72v24q0 252 250 252q119 0 184.5 -58t65.5 -155v-12q0 -61 -20 -104.5t-74 -100.5l-295 -313h389z" />
    <glyph glyph-name="three.inf" unicode="&#xe574;" 
d="M125 -154q0 -202 176 -202h10q74 0 126 39.5t52 113.5v15q0 74 -46.5 113.5t-120.5 39.5h-117v66h112q73 0 119.5 35.5t46.5 105.5v8q0 70 -47.5 112t-124.5 42h-10q-88 0 -130 -50t-42 -161h-72v24q0 252 250 252q119 0 184.5 -57.5t65.5 -153.5v-14q0 -134 -125 -176
q129 -49 129 -186v-17q0 -95 -71 -156t-183 -61q-128 0 -192 67t-64 189v12h74z" />
    <glyph glyph-name="four.inf" unicode="&#xe575;" 
d="M449 -410h-74v211h-342v49l344 539h72v-520h131v-68h-131v-211zM377 264l-254 -397l88 2h164v291z" />
    <glyph glyph-name="five.inf" unicode="&#xe576;" 
d="M51 -154h74q0 -202 176 -202h10q75 0 126.5 46.5t51.5 137.5v18q0 91 -51.5 138t-128.5 47h-8q-58 0 -109 -28.5t-73 -80.5l-62 19l21 448h473v-67h-404l-12 -285q69 59 174 59q111 0 181.5 -66.5t70.5 -185.5v-12q0 -121 -70.5 -187.5t-183.5 -66.5q-128 0 -192 67
t-64 189v12z" />
    <glyph glyph-name="six.inf" unicode="&#xe577;" 
d="M528 399v-65q-84 0 -165.5 -35t-135.5 -106q-59 -77 -82 -175q74 74 181 74t173 -64.5t66 -187.5v-10q0 -123 -68.5 -187.5t-185.5 -64.5q-113 0 -184.5 75t-71.5 206v12q0 213 113 365q62 84 158 123.5t202 39.5zM313 27q-60 0 -108.5 -30.5t-75.5 -82.5v-57
q0 -97 51 -155t127 -58h6q83 0 132 48.5t49 135.5v16q0 86 -48 134.5t-127 48.5h-6z" />
    <glyph glyph-name="seven.inf" unicode="&#xe578;" 
d="M59 102v287h504v-45l-307 -754h-78l299 734l-112 -2h-240v-220h-66z" />
    <glyph glyph-name="eight.inf" unicode="&#xe579;" 
d="M307 -422q-114 0 -185 60t-71 155v17q0 139 129 188q-123 42 -123 178v14q0 96 65.5 152.5t184.5 56.5t184.5 -56.5t65.5 -152.5v-14q0 -68 -33.5 -113t-91.5 -65q129 -49 129 -188v-17q0 -95 -70.5 -155t-183.5 -60zM293 -35q-74 0 -121 -40.5t-47 -114.5v-15
q0 -74 51.5 -112.5t124.5 -38.5h10q75 0 126.5 38.5t51.5 112.5v15q0 74 -47 114.5t-120 40.5h-29zM311 334h-10q-77 0 -124.5 -41t-47.5 -111v-8q0 -70 46.5 -106.5t121.5 -36.5h20q73 0 119.5 36.5t46.5 106.5v8q0 70 -47.5 111t-124.5 41z" />
    <glyph glyph-name="nine.inf" unicode="&#xe57a;" 
d="M84 -422v66q85 0 166.5 35t136.5 106q57 77 80 176q-74 -74 -180 -74q-107 0 -173.5 64t-66.5 186v10q0 123 68.5 187.5t187.5 64.5q113 0 183.5 -74t70.5 -206v-10q0 -216 -113 -367q-62 -83 -159 -123.5t-201 -40.5zM301 -47q59 0 107 30t75 80q2 16 2 50v10
q0 96 -51.5 153.5t-128.5 57.5h-6q-82 0 -130 -48t-48 -134v-19q0 -86 47 -133t127 -47h6z" />
    <glyph glyph-name="plus.inf" unicode="&#xe57b;" 
d="M272 248h68v-225h225v-68h-225v-223h-68v223h-223v68h223v225z" />
    <glyph glyph-name="minus.inf" unicode="&#xe57c;" 
d="M49 -45v68h516v-68h-516z" />
    <glyph glyph-name="equal.inf" unicode="&#xe57d;" 
d="M49 59v68h516v-68h-516zM49 -150v68h516v-68h-516z" />
    <glyph glyph-name="parenleft.inf" unicode="&#xe57e;" horiz-adv-x="323" 
d="M61 -20v20q0 215 125 389h76q-129 -190 -129 -389v-20q0 -204 129 -390h-76q-125 170 -125 390z" />
    <glyph glyph-name="parenright.inf" unicode="&#xe57f;" horiz-adv-x="323" 
d="M262 0v-20q0 -220 -125 -390h-76q129 186 129 390v20q0 199 -129 389h76q125 -174 125 -389z" />
    <glyph glyph-name="Anocross" unicode="&#xe731;" horiz-adv-x="1228" 
d="M553 1618h123l483 -1618h-90l-455 1536l-454 -1536h-90z" />
    <glyph glyph-name="idotaccent" unicode="&#xe785;" horiz-adv-x="409" 
d="M164 0v1085h82v-1085h-82zM266 1505v-123h-123v123h123z" />
    <glyph glyph-name="interrobangdown" unicode="&#xe935;" horiz-adv-x="901" 
d="M66 -61q0 83 19.5 151.5t50.5 117.5t68.5 92.5t75.5 86.5t70 89t53 110t23 141h49l21 -1075q76 9 129 46t82.5 101t42 142t12.5 182h82v-21q0 -93 -10 -167t-37 -144.5t-71 -117.5t-115.5 -75t-166.5 -28q-180 0 -279 97t-99 272zM152 -51q0 -279 251 -299l17 839
q-22 -53 -59 -108t-71.5 -98.5t-66.5 -92.5t-51.5 -110t-19.5 -131zM389 963v122h123v-122h-123z" />
    <glyph glyph-name="interrobangdown.cap" unicode="&#xe99b;" horiz-adv-x="901" 
d="M66 410q0 83 19.5 152t50.5 118t68.5 94.5t75.5 91t70 96t53 121.5t23 156h49l21 -1180q76 11 129 51.5t82.5 110t42 154.5t12.5 198h82v-20q0 -100 -10 -180t-37 -155.5t-71 -126t-115.5 -81t-166.5 -30.5q-378 0 -378 430zM152 420q0 -171 55.5 -261.5t195.5 -101.5
l17 922q-22 -57 -59.5 -116t-71.5 -105t-66 -96.5t-51.5 -111.5t-19.5 -130zM389 1475v122h123v-122h-123z" />
    <glyph glyph-name="registered.cap" unicode="&#xe99c;" horiz-adv-x="1884" 
d="M123 799q0 167 65 318.5t174.5 261t261 174.5t318.5 65t318.5 -65t261 -174.5t174.5 -261t65 -318.5t-65 -318.5t-174.5 -261t-261 -174.5t-318.5 -65t-318.5 65t-261 174.5t-174.5 261t-65 318.5zM201 799q0 -202 99 -372.5t269.5 -270t372.5 -99.5t372.5 99.5
t269.5 270t99 372.5q0 151 -58.5 288.5t-157.5 236.5t-236.5 157.5t-288.5 58.5t-288.5 -58.5t-236.5 -157.5t-157.5 -236.5t-58.5 -288.5zM719 727v-410h-82v963h328q44 0 83 -7t78 -25t66.5 -47t45 -76t17.5 -109v-25q0 -195 -165 -248l165 -426h-88l-159 412
q-14 -2 -43 -2h-246zM719 801h246q209 0 209 194v17q0 194 -209 194h-246v-405z" />
    <glyph glyph-name="period.T" unicode="&#xf182;" 
d="M369 123v-123h-123v123h123z" />
    <glyph glyph-name="comma.T" unicode="&#xf183;" 
d="M369 123v-98q0 -250 -185 -250v61q61 0 90.5 36t32.5 128h-61v123h123z" />
    <glyph glyph-name="colon.T" unicode="&#xf184;" 
d="M369 123v-123h-123v123h123zM369 860v-123h-123v123h123z" />
    <glyph glyph-name="semicolon.T" unicode="&#xf185;" 
d="M369 123v-98q0 -250 -185 -250v61q61 0 90.5 36t32.5 128h-61v123h123zM369 860v-123h-123v123h123z" />
    <glyph glyph-name="onesixteenth" unicode="&#xf215;" horiz-adv-x="2252" 
d="M2167 809v-66q-84 0 -165.5 -35t-135.5 -106q-60 -77 -82 -174q74 74 180 74q107 0 173.5 -64.5t66.5 -187.5v-10q0 -123 -68.5 -187.5t-185.5 -64.5q-113 0 -184.5 75t-71.5 205v13q0 213 112 364q62 84 158.5 124t202.5 40zM274 0h-90l1180 1597h90zM1952 436
q-61 0 -109.5 -30t-75.5 -82v-58q0 -97 51.5 -155t127.5 -58h6q83 0 131.5 49t48.5 136v16q0 86 -47.5 134t-126.5 48h-6zM1585 0h-489v66h209v636l-189 -127l-37 58l252 170h47v-737h207v-66zM561 799h-489v65h209v637l-189 -127l-37 58l252 170h47v-738h207v-65z" />
    <glyph glyph-name="threesixteenths" unicode="&#xf216;" horiz-adv-x="2252" 
d="M2167 809v-66q-84 0 -165.5 -35t-135.5 -106q-60 -77 -82 -174q74 74 180 74q107 0 173.5 -64.5t66.5 -187.5v-10q0 -123 -68.5 -187.5t-185.5 -64.5q-113 0 -184.5 75t-71.5 205v13q0 213 112 364q62 84 158.5 124t202.5 40zM274 0h-90l1180 1597h90zM125 1055
q0 -203 176 -203h10q74 0 126 40t52 114v14q0 74 -46.5 114t-120.5 40h-117v65h112q73 0 119.5 35.5t46.5 105.5v9q0 70 -47.5 111.5t-124.5 41.5h-10q-88 0 -130 -50t-42 -161h-72v25q0 252 250 252q119 0 184.5 -57.5t65.5 -153.5v-15q0 -132 -125 -178q129 -46 129 -184
v-16q0 -96 -71 -157t-183 -61q-128 0 -192 67t-64 189v13h74zM1952 436q-61 0 -109.5 -30t-75.5 -82v-58q0 -97 51.5 -155t127.5 -58h6q83 0 131.5 49t48.5 136v16q0 86 -47.5 134t-126.5 48h-6zM1585 0h-489v66h209v636l-189 -127l-37 58l252 170h47v-737h207v-66z" />
    <glyph glyph-name="fivesixteenths" unicode="&#xf217;" horiz-adv-x="2252" 
d="M2167 809v-66q-84 0 -165.5 -35t-135.5 -106q-60 -77 -82 -174q74 74 180 74q107 0 173.5 -64.5t66.5 -187.5v-10q0 -123 -68.5 -187.5t-185.5 -64.5q-113 0 -184.5 75t-71.5 205v13q0 213 112 364q62 84 158.5 124t202.5 40zM51 1055h74q0 -203 176 -203h10
q75 0 126.5 46.5t51.5 137.5v19q0 91 -51.5 137.5t-128.5 46.5h-8q-58 0 -109 -28.5t-73 -80.5l-62 19l21 448h473v-67h-404l-12 -285q70 60 174 60q111 0 181.5 -66.5t70.5 -185.5v-13q0 -121 -70.5 -187.5t-183.5 -66.5q-128 0 -192 67t-64 189v13zM274 0h-90l1180 1597
h90zM1952 436q-61 0 -109.5 -30t-75.5 -82v-58q0 -97 51.5 -155t127.5 -58h6q83 0 131.5 49t48.5 136v16q0 86 -47.5 134t-126.5 48h-6zM1585 0h-489v66h209v636l-189 -127l-37 58l252 170h47v-737h207v-66z" />
    <glyph glyph-name="sevensixteenths" unicode="&#xf218;" horiz-adv-x="2252" 
d="M2167 809v-66q-84 0 -165.5 -35t-135.5 -106q-60 -77 -82 -174q74 74 180 74q107 0 173.5 -64.5t66.5 -187.5v-10q0 -123 -68.5 -187.5t-185.5 -64.5q-113 0 -184.5 75t-71.5 205v13q0 213 112 364q62 84 158.5 124t202.5 40zM274 0h-90l1180 1597h90zM1952 436
q-61 0 -109.5 -30t-75.5 -82v-58q0 -97 51.5 -155t127.5 -58h6q83 0 131.5 49t48.5 136v16q0 86 -47.5 134t-126.5 48h-6zM59 1311v286h504v-45l-307 -753h-78l299 733l-112 -2h-240v-219h-66zM1585 0h-489v66h209v636l-189 -127l-37 58l252 170h47v-737h207v-66z" />
    <glyph glyph-name="ninesixteenths" unicode="&#xf219;" horiz-adv-x="2252" 
d="M2167 809v-66q-84 0 -165.5 -35t-135.5 -106q-60 -77 -82 -174q74 74 180 74q107 0 173.5 -64.5t66.5 -187.5v-10q0 -123 -68.5 -187.5t-185.5 -64.5q-113 0 -184.5 75t-71.5 205v13q0 213 112 364q62 84 158.5 124t202.5 40zM84 786v66q85 0 166.5 35t136.5 106
q56 73 80 176q-70 -73 -180 -73q-107 0 -173.5 64t-66.5 186v10q0 123 68.5 187.5t187.5 64.5q113 0 183.5 -74.5t70.5 -206.5v-10q0 -216 -113 -367q-62 -83 -159 -123.5t-201 -40.5zM274 0h-90l1180 1597h90zM1952 436q-61 0 -109.5 -30t-75.5 -82v-58q0 -97 51.5 -155
t127.5 -58h6q83 0 131.5 49t48.5 136v16q0 86 -47.5 134t-126.5 48h-6zM301 1161q59 0 107 30t75 81q2 16 2 49v10q0 96 -51.5 153.5t-128.5 57.5h-6q-82 0 -130 -48t-48 -134v-19q0 -86 47 -133t127 -47h6zM1585 0h-489v66h209v636l-189 -127l-37 58l252 170h47v-737h207
v-66z" />
    <glyph glyph-name="elevensixteenths" unicode="&#xf220;" horiz-adv-x="2867" 
d="M2781 809v-66q-84 0 -165.5 -35t-135.5 -106q-60 -77 -82 -174q74 74 180 74q107 0 173.5 -64.5t66.5 -187.5v-10q0 -123 -68.5 -187.5t-185.5 -64.5q-113 0 -184.5 75t-71.5 205v13q0 212 113 364q62 84 158.5 124t201.5 40zM889 0h-90l1179 1597h90zM2566 436
q-61 0 -109 -30t-75 -82v-58q0 -97 51 -155t127 -58h6q83 0 131.5 49t48.5 136v16q0 86 -47.5 134t-126.5 48h-6zM561 799h-489v65h209v637l-189 -127l-37 58l252 170h47v-738h207v-65zM1176 799h-490v65h209v637l-188 -127l-37 58l252 170h47v-738h207v-65zM2200 0h-490v66
h209v636l-188 -127l-37 58l252 170h47v-737h207v-66z" />
    <glyph glyph-name="thirteensixteenths" unicode="&#xf221;" horiz-adv-x="2867" 
d="M2781 809v-66q-84 0 -165.5 -35t-135.5 -106q-60 -77 -82 -174q74 74 180 74q107 0 173.5 -64.5t66.5 -187.5v-10q0 -123 -68.5 -187.5t-185.5 -64.5q-113 0 -184.5 75t-71.5 205v13q0 212 113 364q62 84 158.5 124t201.5 40zM889 0h-90l1179 1597h90zM739 1055
q0 -203 176 -203h11q74 0 126 40t52 114v14q0 74 -47 114t-121 40h-117v65h113q73 0 119.5 35.5t46.5 105.5v9q0 70 -47.5 111.5t-124.5 41.5h-11q-88 0 -130 -50t-42 -161h-71v25q0 252 250 252q119 0 184 -57.5t65 -153.5v-15q0 -133 -124 -178q129 -46 129 -184v-16
q0 -96 -71 -157t-183 -61q-128 0 -192 67t-64 189v13h73zM2566 436q-61 0 -109 -30t-75 -82v-58q0 -97 51 -155t127 -58h6q83 0 131.5 49t48.5 136v16q0 86 -47.5 134t-126.5 48h-6zM561 799h-489v65h209v637l-189 -127l-37 58l252 170h47v-738h207v-65zM2200 0h-490v66h209
v636l-188 -127l-37 58l252 170h47v-737h207v-66z" />
    <glyph glyph-name="fifteensixteenths" unicode="&#xf222;" horiz-adv-x="2867" 
d="M2781 809v-66q-84 0 -165.5 -35t-135.5 -106q-60 -77 -82 -174q74 74 180 74q107 0 173.5 -64.5t66.5 -187.5v-10q0 -123 -68.5 -187.5t-185.5 -64.5q-113 0 -184.5 75t-71.5 205v13q0 212 113 364q62 84 158.5 124t201.5 40zM666 1055h73q0 -203 176 -203h11
q75 0 126.5 46.5t51.5 137.5v19q0 91 -51.5 137.5t-128.5 46.5h-9q-58 0 -109 -28.5t-73 -80.5l-61 19l20 448h473v-67h-403l-12 -285q70 60 174 60q111 0 181.5 -66.5t70.5 -185.5v-13q0 -121 -70.5 -187.5t-183.5 -66.5q-128 0 -192 67t-64 189v13zM889 0h-90l1179 1597
h90zM2566 436q-61 0 -109 -30t-75 -82v-58q0 -97 51 -155t127 -58h6q83 0 131.5 49t48.5 136v16q0 86 -47.5 134t-126.5 48h-6zM561 799h-489v65h209v637l-189 -127l-37 58l252 170h47v-738h207v-65zM2200 0h-490v66h209v636l-188 -127l-37 58l252 170h47v-737h207v-66z" />
    </font>
</defs>
</svg>
